Подождите, идет загрузка сайта ...
2
Голодные игры: Баллада о змеях и певчих птицах / The Hunger Games: The Ballad of Songbirds & Snakes- Год выпуска: 2023
Страна: США, Канада
Жанр: Фантастика, боевик, триллер, драма, приключения, военный
Продолжительность: 02:28:49
Перевод: Профессиональный (дублированный) Мосфильм-Мастер
Субтитры: Русские (вшитые на песни)
Режиссер: Фрэнсис Лоуренс
В ролях: Том Блит, Рэйчел Зеглер, Питер Динклэйдж, Хантер Шафер, Джош Андрес Ривера, Джейсон Шварцман, Виола Дэвис, Финола Флэнаган, Берн Горман, Эшли Ляо-Качество: WEBRip 1080p
Формат: MKV
Видео кодек: AVC
Аудио кодек: AC3, E-AC3
Видео: AVC, 1920 x 804, 10.5 Mbps, 24.000 fps
Аудио: AC3, 6 ch, 48 kHz, 448 kbps Мосфильм-Мастер-Описание: До того как стать деспотичным президентом Панэма, молодой Кориолан Сноу был последней надеждой своего увядающего рода — некогда великой династии, впавшей в немилость послевоенного Капитолия. Накануне десятых ежегодных Голодных игр Сноу назначают наставником Люси Грей Бэйрд — трибута дистрикта 12. Постепенно девушка привлекает все больше внимание Панэма, становясь фавориткой грядущего соревнования. Готовый на всё, чтобы вернуть своей семье былое величие, Сноу решает обратить ситуацию с Люси в свою пользу. Начинается гонка со временем, которая покажет, кто певчая птица, а кто — змея.
General
Unique ID : 246435856339753651592680016644159389857 (0xB965D1CB60A35AA5A789F76AF59940A1)
Complete name : F:\Torrents\Голодные.игры.Баллада.о.змеях.и.певчих.птицах.2023.WEBRip.[1080p].mkv
Format : Matroska
Format version : Version 4
File size : 11.4 GiB
Duration : 2 h 28 min
Overall bit rate : 11.0 Mb/s
Frame rate : 24.000 FPS
Movie name : Голодные.игры.Баллада.о.змеях.и.певчих.птицах.2023.WEBRip.[1080p].NNMClub
Encoded date : 2023-12-08 14:20:32 UTC
Writing application : mkvmerge v8.3.0 ('Over the Horizon') 64bit
Writing library : libebml v1.3.1 + libmatroska v1.4.2
Video
ID : 1
Format : AVC
Format/Info : Advanced Video Codec
Format profile : High@L4
Format settings : CABAC / 1 Ref Frames
Format settings, CABAC : Yes
Format settings, Reference fra : 1 frame
Codec ID : V_MPEG4/ISO/AVC
Duration : 2 h 28 min
Bit rate : 10.5 Mb/s
Width : 1 920 pixels
Height : 804 pixels
Display aspect ratio : 2.40:1
Frame rate mode : Constant
Frame rate : 24.000 FPS
Color space : YUV
Chroma subsampling : 4:2:0
Bit depth : 8 bits
Scan type : Progressive
Bits/(Pixel*Frame) : 0.284
Stream size : 10.9 GiB (96%)
Writing library : x264 core 158 r2984 3759fcb
Encoding settings : cabac=1 / ref=1 / deblock=1:0:0 / analyse=0x3:0x113 / me=hex / subme=2 / psy=1 / psy_rd=1.00:0.00 / mixed_ref=0 / me_range=16 / chroma_me=1 / trellis=0 / 8x8dct=1 / cqm=0 / deadzone=21,11 / fast_pskip=1 / chroma_qp_offset=0 / threads=6 / lookahead_threads=2 / sliced_threads=0 / nr=0 / decimate=1 / interlaced=0 / bluray_compat=0 / constrained_intra=0 / bframes=0 / weightp=1 / keyint=24 / keyint_min=2 / scenecut=40 / intra_refresh=0 / rc_lookahead=10 / rc=crf / mbtree=1 / crf=18.0 / qcomp=0.60 / qpmin=18 / qpmax=18 / qpstep=4 / ip_ratio=1.40 / aq=1:1.00
Language : English
Default : Yes
Forced : No
Audio
ID : 2
Format : AC-3
Format/Info : Audio Coding 3
Commercial name : Dolby Digital
Codec ID : A_AC3
Duration : 2 h 28 min
Bit rate mode : Constant
Bit rate : 448 kb/s
Channel(s) : 6 channels
Channel layout : L R C LFE Ls Rs
Sampling rate : 48.0 kHz
Frame rate : 31.250 FPS (1536 SPF)
Compression mode : Lossy
Delay relative to video : -6 ms
Stream size : 477 MiB (4%)
Language : Russian
Service kind : Complete Main
Default : Yes
Forced : No

Показать сообщения

Вы не можете начинать темы
Вы не можете отвечать на сообщения
Вы не можете редактировать свои сообщения
Вы не можете удалять свои сообщения
Вы не можете голосовать в опросах
Вы не можете прикреплять файлы к сообщениям
Вы не можете скачивать файлы

Текущее время: 12-Июн 21:48

Часовой пояс: UTC ± 0

Пользовательское соглашение Для правообладателей Реклама на сайте Top.Mail.Ru