Подождите, идет загрузка сайта ...
2
Годзилла: Минус один
Gojira -1.0 | Godzilla: Minus One
- Год выпуска: 2023
Страна: Япония
Жанр: фантастика, боевик, драма
Продолжительность: 02:04:38
Перевод: Профессиональный (многоголосый закадровый) | GoltFilm
Субтитры: английские, русские (rusubmaker)
В ролях: Рюносукэ Камики, Сакура Андо, Минами Хамабэ, Юки Ямада, Такато Ёнэмото, Рикако Миура, Мунэтака Аоки, Майкл Ариас, Юки Такао, Кураносукэ Сасаки
Режиссёр: Такаси Ямадзаки-Качество: BDRip 1080p
Формат: MKV
Видео кодек: AVC
Аудио кодек: AC3
Видео: AVC, 1920x804, ~12000 kbps, 23.976 fps
Аудио#1: AC3, 320kbps, 48.0 KHz, 2 ch | русский (GoltFilm)
Аудио#2: AC3, 448kbps, 48.0 KHz, 6 ch | японский-Описание: Действие фильма происходит в 1945 году. Япония, которая уже опустошена войной, сталкивается с новой угрозой в виде Годзиллы, в результате чего страна оказывается под угрозой существования. Кайдзю вновь проявляет свою ужасающую и разрушающую силу. Выстоит ли Япония?
General
Unique ID                      : 265175935684012940827478411402693679320 (0xC77F070AAA10181A656A0563319998D8)
Complete name                  : D:\Downloads\Godzilla.Minus.One.BDRip1080p.mkv
Format                         : Matroska
Format version                 : Version 4
File size                      : 10.9 GiB
Duration                       : 2 h 4 min
Overall bit rate               : 12.6 Mb/s
Frame rate                     : 23.976 FPS
Movie name                     : Gojira -1.0 BDRip1080p
Encoded date                   : 2024-05-03 22:37:32 UTC
Writing application            : mkvmerge v84.0 ('Sleeper') 64-bit
Writing library                : libebml v1.4.5 + libmatroska v1.7.1
Video
ID                             : 1
Format                         : AVC
Format/Info                    : Advanced Video Codec
Format profile                 : Main@L4
Format settings                : CABAC / 1 Ref Frames
Format settings, CABAC         : Yes
Format settings, Reference fra : 1 frame
Codec ID                       : V_MPEG4/ISO/AVC
Duration                       : 2 h 4 min
Bit rate mode                  : Constant
Bit rate                       : 12.0 Mb/s
Width                          : 1 920 pixels
Height                         : 804 pixels
Display aspect ratio           : 2.40:1
Frame rate mode                : Constant
Frame rate                     : 23.976 (23976/1000) FPS
Color space                    : YUV
Chroma subsampling             : 4:2:0
Bit depth                      : 8 bits
Scan type                      : Progressive
Bits/(Pixel*Frame)             : 0.324
Stream size                    : 10.3 GiB (94%)
Default                        : Yes
Forced                         : No
Audio #1
ID                             : 2
Format                         : AC-3
Format/Info                    : Audio Coding 3
Commercial name                : Dolby Digital
Codec ID                       : A_AC3
Duration                       : 2 h 4 min
Bit rate mode                  : Constant
Bit rate                       : 320 kb/s
Channel(s)                     : 2 channels
Channel layout                 : L R
Sampling rate                  : 48.0 kHz
Frame rate                     : 31.250 FPS (1536 SPF)
Compression mode               : Lossy
Delay relative to video        : -5 ms
Stream size                    : 285 MiB (3%)
Title                          : GoltFilm
Language                       : Russian
Service kind                   : Complete Main
Default                        : Yes
Forced                         : No
Audio #2
ID                             : 3
Format                         : AC-3
Format/Info                    : Audio Coding 3
Commercial name                : Dolby Digital
Codec ID                       : A_AC3
Duration                       : 2 h 4 min
Bit rate mode                  : Constant
Bit rate                       : 448 kb/s
Channel(s)                     : 6 channels
Channel layout                 : L R C LFE Ls Rs
Sampling rate                  : 48.0 kHz
Frame rate                     : 31.250 FPS (1536 SPF)
Compression mode               : Lossy
Delay relative to video        : -5 ms
Stream size                    : 399 MiB (4%)
Language                       : Japanese
Service kind                   : Complete Main
Default                        : No
Forced                         : No
Text #1
ID                             : 4
Format                         : UTF-8
Codec ID                       : S_TEXT/UTF8
Codec ID/Info                  : UTF-8 Plain Text
Duration                       : 1 h 58 min
Bit rate                       : 66 b/s
Frame rate                     : 0.160 FPS
Count of elements              : 1131
Stream size                    : 57.3 KiB (0%)
Title                          : rusubmaker
Language                       : Russian
Default                        : No
Forced                         : No
Text #2
ID                             : 5
Format                         : UTF-8
Codec ID                       : S_TEXT/UTF8
Codec ID/Info                  : UTF-8 Plain Text
Duration                       : 1 h 56 min
Bit rate                       : 34 b/s
Frame rate                     : 0.158 FPS
Count of elements              : 1110
Stream size                    : 29.7 KiB (0%)
Language                       : English
Default                        : No
Forced                         : No
Menu
00:00:00.000                   : Глава 01
00:13:21.509                   : Глава 02
00:20:07.664                   : Глава 03
00:30:31.579                   : Глава 04
00:44:53.565                   : Глава 05
00:52:28.019                   : Глава 06
01:05:42.271                   : Глава 07
01:14:52.279                   : Глава 08
01:17:59.716                   : Глава 09
01:25:42.011                   : Глава 10
01:36:21.025                   : Глава 11
01:58:58.798                   : Глава 12

Показать сообщения

Вы не можете начинать темы
Вы не можете отвечать на сообщения
Вы не можете редактировать свои сообщения
Вы не можете удалять свои сообщения
Вы не можете голосовать в опросах
Вы не можете прикреплять файлы к сообщениям
Вы не можете скачивать файлы

Текущее время: 23-Июн 08:19

Часовой пояс: UTC ± 0

Пользовательское соглашение Для правообладателей Реклама на сайте Top.Mail.Ru