Подождите, идет загрузка сайта ...
2
Годзилла и Конг: Новая империя / Godzilla x Kong: The New Empire- Год выпуска: 2024
Страна: США, Австралия
Студия: Legendary Pictures, Screen Queensland, Warner Bros.
Жанр: Фантастика, боевик
Продолжительность: 01:54:38
Перевод: Дублированный (Bravo Records Georgia / Movie Dubbing)
Субтитры: русские (forced, full), украинские (forced), английские (Forced, full, SDH)
Режиссёр: Адам Вингард
В ролях: Ребекка Холл, Брайан Тайри Генри, Дэн Стивенс, Кэйли Хоттл, Алекс Фернс, Чэнь Фала, Рэйчел Хаус, Рональд Смик, Чантелл Джемисон, Грег Хаттон-Качество: WEB-DL 2160p
Формат: MKV
Видео кодек: HEVC
Аудио кодек: AC3, E-AC3
Видео: MPEG-H HEVC, 15 Мбит/с, 3840x1600, 23.976 кадр/с, 8 бит / SDR
Аудио 1: AC3, 6 ch, 256 kbps, 48,0 КГц - русский
Аудио 2: Е-AC3, 6 ch, 256 kbps 48,0 КГц - русский
Аудио 3: E-AC3, 6 ch, 256 Kbps 48,0 КГц - украинский
Аудио 4: E-AC3, 6 ch, 640 Kbps 48,0 КГц - английский-Описание: Два древних титана, Годзилла и Конг, сражаются в эпической битве, пока люди разгадывают их происхождение и связь с тайнами Острова черепа.
Общее
Уникальный идентификатор                 : 208855222864178580859838616370978596975 (0x9D200D82B34A598483B00596F00DA86F)
Полное имя                               : D:\РАЗДАЧИ\Godzilla.x.Kong.The.New.Empire.2024.2160p.SDR.Master5.mkv
Формат                                   : Matroska
Версия формата                           : Version 4
Размер файла                             : 13,1 Гбайт
Продолжительность                        : 1 ч. 55 мин.
Общий битрейт                            : 16,3 Мбит/сек
Частота кадров                           : 23,976 кадра/сек
Название фильма                          : Godzilla.x.Kong.The.New.Empire.2024.2160p.SDR.Master5
Дата кодирования                         : 2024-05-13 13:32:11 UTC
Программа кодирования                    : mkvmerge v7.9.0 ('Birds') 64bit
Библиотека кодирования                   : libebml v1.3.1 + libmatroska v1.4.2
Видео
Идентификатор                            : 1
Формат                                   : HEVC
Формат/Информация                        : High Efficiency Video Coding
Профиль формата                          : Main@L5@Main
Идентификатор кодека                     : V_MPEGH/ISO/HEVC
Продолжительность                        : 1 ч. 54 мин.
Битрейт                                  : 15,0 Мбит/сек
Ширина                                   : 3 840 пикселей
Высота                                   : 1 600 пикселей
Соотношение сторон дисплея               : 2,40:1
Режим частоты кадров                     : Постоянный
Частота кадров                           : 23,976 (24000/1001) кадра/сек
Цветовое пространство                    : YUV
Цветовая субдискретизация                : 4:2:0
Битовая глубина                          : 8 бит
Бит/(Пиксели*Кадры)                      : 0.102
Размер потока                            : 12,0 Гбайт (91%)
Заголовок                                : Godzilla.x.Kong.The.New.Empire.2024.2160p.SDR.Master5
Язык                                     : Английский
По умолчанию                             : Да
Принудительно                            : Нет
Цветовой диапазон                        : Limited
Основные цвета                           : BT.709
Характеристики трансфера                 : BT.709
Коэффициенты матрицы                     : BT.709
Аудио #1
Идентификатор                            : 2
Формат                                   : AC-3
Формат/Информация                        : Audio Coding 3
Коммерческое название                    : Dolby Digital
Идентификатор кодека                     : A_AC3
Продолжительность                        : 1 ч. 54 мин.
Вид битрейта                             : Постоянный
Битрейт                                  : 256 Кбит/сек
Канал(-ы)                                : 6 каналов
Расположение каналов                     : L R C LFE Ls Rs
Частота дискретизации                    : 48,0 КГц
Частота кадров                           : 31,250 кадров/сек (1536 SPF)
Метод сжатия                             : С потерями
Размер потока                            : 210 Мбайт (2%)
Заголовок                                : DUB
Язык                                     : Русский
Вид сервиса                              : Complete Main
По умолчанию                             : Да
Принудительно                            : Нет
Нормализация звука речи                  : -31 dB
cmixlev                                  : -4.5 dB
surmixlev                                : -6 dB
dialnorm_Average                         : -31 dB
dialnorm_Minimum                         : -31 dB
dialnorm_Maximum                         : -31 dB
Аудио #2
Идентификатор                            : 3
Формат                                   : E-AC-3
Формат/Информация                        : Enhanced AC-3
Коммерческое название                    : Dolby Digital Plus
Идентификатор кодека                     : A_EAC3
Продолжительность                        : 1 ч. 55 мин.
Вид битрейта                             : Постоянный
Битрейт                                  : 256 Кбит/сек
Канал(-ы)                                : 6 каналов
Расположение каналов                     : L R C LFE Ls Rs
Частота дискретизации                    : 48,0 КГц
Частота кадров                           : 31,250 кадров/сек (1536 SPF)
Метод сжатия                             : С потерями
Размер потока                            : 211 Мбайт (2%)
Заголовок                                : DUB
Язык                                     : Русский
Вид сервиса                              : Complete Main
По умолчанию                             : Нет
Принудительно                            : Нет
Нормализация звука речи                  : -23 dB
compr                                    : -0.28 dB
mixlevel                                 : 105 dB
dialnorm_Average                         : -23 dB
dialnorm_Minimum                         : -23 dB
dialnorm_Maximum                         : -23 dB
Аудио #3
Идентификатор                            : 4
Формат                                   : E-AC-3
Формат/Информация                        : Enhanced AC-3
Коммерческое название                    : Dolby Digital Plus
Идентификатор кодека                     : A_EAC3
Продолжительность                        : 1 ч. 55 мин.
Вид битрейта                             : Постоянный
Битрейт                                  : 256 Кбит/сек
Канал(-ы)                                : 6 каналов
Расположение каналов                     : L R C LFE Ls Rs
Частота дискретизации                    : 48,0 КГц
Частота кадров                           : 31,250 кадров/сек (1536 SPF)
Метод сжатия                             : С потерями
Размер потока                            : 211 Мбайт (2%)
Заголовок                                : DUB
Язык                                     : Украинский
Вид сервиса                              : Complete Main
По умолчанию                             : Нет
Принудительно                            : Нет
Нормализация звука речи                  : -23 dB
compr                                    : -0.28 dB
mixlevel                                 : 105 dB
dialnorm_Average                         : -23 dB
dialnorm_Minimum                         : -23 dB
dialnorm_Maximum                         : -23 dB
Аудио #4
Идентификатор                            : 5
Формат                                   : E-AC-3
Формат/Информация                        : Enhanced AC-3
Коммерческое название                    : Dolby Digital Plus
Идентификатор кодека                     : A_EAC3
Продолжительность                        : 1 ч. 54 мин.
Вид битрейта                             : Постоянный
Битрейт                                  : 640 Кбит/сек
Канал(-ы)                                : 6 каналов
Расположение каналов                     : L R C LFE Ls Rs
Частота дискретизации                    : 48,0 КГц
Частота кадров                           : 31,250 кадров/сек (1536 SPF)
Метод сжатия                             : С потерями
Размер потока                            : 525 Мбайт (4%)
Язык                                     : Английский
Вид сервиса                              : Complete Main
По умолчанию                             : Нет
Принудительно                            : Нет
Нормализация звука речи                  : -31 dB
compr                                    : -0.28 dB
dialnorm_Average                         : -31 dB
dialnorm_Minimum                         : -31 dB
dialnorm_Maximum                         : -31 dB
Текст #1
Идентификатор                            : 6
Формат                                   : UTF-8
Идентификатор кодека                     : S_TEXT/UTF8
Идентификатор кодека/Информация          : UTF-8 Plain Text
Продолжительность                        : 1 ч. 43 мин.
Битрейт                                  : 3 бит/сек
Частота кадров                           : 0,011 кадр/сек
Число элементов                          : 67
Размер потока                            : 2,85 КиБ (0%)
Заголовок                                : forced
Язык                                     : Русский
По умолчанию                             : Да
Принудительно                            : Нет
Текст #2
Идентификатор                            : 7
Формат                                   : UTF-8
Идентификатор кодека                     : S_TEXT/UTF8
Идентификатор кодека/Информация          : UTF-8 Plain Text
Продолжительность                        : 1 ч. 53 мин.
Битрейт                                  : 51 бит/сек
Частота кадров                           : 0,121 кадр/сек
Число элементов                          : 825
Размер потока                            : 42,6 КиБ (0%)
Заголовок                                : full
Язык                                     : Русский
По умолчанию                             : Нет
Принудительно                            : Нет
Текст #3
Идентификатор                            : 8
Формат                                   : UTF-8
Идентификатор кодека                     : S_TEXT/UTF8
Идентификатор кодека/Информация          : UTF-8 Plain Text
Продолжительность                        : 1 ч. 33 мин.
Битрейт                                  : 1 бит/сек
Частота кадров                           : 0,010 кадр/сек
Число элементов                          : 56
Размер потока                            : 1,28 КиБ (0%)
Заголовок                                : Forced
Язык                                     : Английский
По умолчанию                             : Нет
Принудительно                            : Нет
Текст #4
Идентификатор                            : 9
Формат                                   : UTF-8
Идентификатор кодека                     : S_TEXT/UTF8
Идентификатор кодека/Информация          : UTF-8 Plain Text
Продолжительность                        : 1 ч. 45 мин.
Битрейт                                  : 38 бит/сек
Частота кадров                           : 0,151 кадр/сек
Число элементов                          : 956
Размер потока                            : 30,1 КиБ (0%)
Язык                                     : Английский
По умолчанию                             : Нет
Принудительно                            : Нет
Текст #5
Идентификатор                            : 10
Формат                                   : UTF-8
Идентификатор кодека                     : S_TEXT/UTF8
Идентификатор кодека/Информация          : UTF-8 Plain Text
Продолжительность                        : 1 ч. 54 мин.
Битрейт                                  : 53 бит/сек
Частота кадров                           : 0,241 кадр/сек
Число элементов                          : 1654
Размер потока                            : 44,4 КиБ (0%)
Заголовок                                : SDH
Язык                                     : Английский
По умолчанию                             : Нет
Принудительно                            : Нет
Текст #6
Идентификатор                            : 11
Формат                                   : UTF-8
Идентификатор кодека                     : S_TEXT/UTF8
Идентификатор кодека/Информация          : UTF-8 Plain Text
Продолжительность                        : 1 ч. 43 мин.
Битрейт                                  : 5 бит/сек
Частота кадров                           : 0,014 кадр/сек
Число элементов                          : 89
Размер потока                            : 4,34 КиБ (0%)
Заголовок                                : Forced
Язык                                     : Украинский
По умолчанию                             : Нет
Принудительно                            : Нет
Меню
00:00:00.000                             : en:Scene 1
01:54:33.000                             : en:Outro

Показать сообщения

Вы не можете начинать темы
Вы не можете отвечать на сообщения
Вы не можете редактировать свои сообщения
Вы не можете удалять свои сообщения
Вы не можете голосовать в опросах
Вы не можете прикреплять файлы к сообщениям
Вы не можете скачивать файлы

Текущее время: 22-Июн 20:06

Часовой пояс: UTC ± 0

Пользовательское соглашение Для правообладателей Реклама на сайте Top.Mail.Ru