Подождите, идет загрузка сайта ...
2
Фарго / Fargo- Год выпуска: 2023
Страна: США
Жанр: Триллер, драма, криминал
Продолжительность: 00:56:12
Сезоны / серии: 5 сезон / 1 - 7 серия из 10
Перевод: Профессиональный (многоголосый закадровый) [HDRezka Studio]
Субтитры: Русские (Forced, Full), английские
В ролях: Дэвид Рисдал, Джуно Темпл, Дженнифер Джейсон Ли, Джо Кири, Сэм Спруэлл, Рича Мурджани, Дэйв Фоли, Ламорн Моррис, Сиенна Кинг, Джон Хэмм
Режиссёр: Ной Хоули, Дональд Мерфи-Качество: WEB-DL 720p
Формат: MKV
Видео кодек: AVC
Аудио кодек: AC3, Е-AC3
Видео: AVC, 1280x720 (16:9), 3000 kbps (0.136 b/px), 23.976 fps
Аудио#1: AC3, 192 kbps (CBR), 48.0 KHz (16 bits), 2 ch, Russian - HDrezka Studio 18+
Аудио#2: Е-AC3, 640 kbps (CBR), 48.0 KHz (16 bits), 6 ch, English-Описание: В 5-ом сезоне сериала «Фарго» завершается масштабная трагикомическая антология на основе фильма братьев Коэн. На сей раз, действие разворачивается почти в современности - в 2019 году. В центре сюжета оказывается семейная пара, пережившая весьма странное криминальное событие. Теперь герою предстоит понять, действительно ли близкого ему человека похитили, или все это - лишь игра его воображения и череда никак не связанных друг с другом случайностей. Он не уверен ни в чем из своей прежней спокойной жизни - даже в том, что его жена - на самом деле все еще его жена.
Общее
Уникальный идентификатор : 302392580264921297430908409205894847467 (0xE37EB14999342FBEA940624F06A69BEB)
Полное имя : E:\сериалы\Fargo.S05.720p\Fargo.S05E01.720p.mkv
Формат : Matroska
Версия формата : Version 4
Размер файла : 1,51 Гбайт
Продолжительность : 56 м. 12 с.
Общий поток : 3 834 Кбит/сек
Дата кодирования : UTC 2023-12-02 08:54:49
Программа кодирования : mkvmerge v35.0.0 ('All The Love In The World') 64-bit
Библиотека кодирования : libebml v1.3.9 + libmatroska v1.5.2
Видео
Идентификатор : 1
Формат : AVC
Формат/Информация : Advanced Video Codec
Профиль формата : [email protected]
Настройки формата : CABAC / 4 Ref Frames
Параметр CABAC формата : Да
Параметр RefFrames формата : 4 кадра
Идентификатор кодека : V_MPEG4/ISO/AVC
Продолжительность : 56 м. 12 с.
Вид битрейта : Постоянный
Битрейт : 3 000 Кбит/сек
Номинальный битрейт : 4 000 Кбит/сек
Ширина : 1 280 пикселей
Высота : 720 пикселей
Соотношение сторон : 16:9
Режим частоты кадров : Постоянный
Частота кадров : 23,976 (24000/1001) кадра/сек
Цветовое пространство : YUV
Субдискретизация насыщенности : 4:2:0
Битовая глубина : 8 бит
Тип развёртки : Прогрессивная
Бит/(Пиксели*Кадры) : 0.136
Размер потока : 1,18 Гбайт (78%)
Default : Да
Forced : Нет
Цветовой диапазон : Limited
Основные цвета : BT.709
Характеристики трансфера : BT.709
Коэффициенты матрицы : BT.709
Аудио #1
Идентификатор : 2
Формат : AC-3
Формат/Информация : Audio Coding 3
Коммерческое название : Dolby Digital
Идентификатор кодека : A_AC3
Продолжительность : 56 м. 12 с.
Вид битрейта : Постоянный
Битрейт : 192 Кбит/сек
Каналы : 2 канала
Channel layout : L R
Частота : 48,0 КГц
Частота кадров : 31,250 кадров/сек (1536 SPF)
Метод сжатия : С потерями
Размер потока : 77,2 Мбайт (5%)
Заголовок : HDR 18+
Язык : Russian
Service kind : Complete Main
Default : Да
Forced : Нет
Аудио #2
Идентификатор : 3
Формат : E-AC-3
Формат/Информация : Enhanced AC-3
Коммерческое название : Dolby Digital Plus
Идентификатор кодека : A_EAC3
Продолжительность : 56 м. 12 с.
Вид битрейта : Постоянный
Битрейт : 640 Кбит/сек
Каналы : 6 каналов
Channel layout : L R C LFE Ls Rs
Частота : 48,0 КГц
Частота кадров : 31,250 кадров/сек (1536 SPF)
Метод сжатия : С потерями
Размер потока : 257 Мбайт (17%)
Язык : English
Service kind : Complete Main
Default : Нет
Forced : Нет
Текст #1
Идентификатор : 4
Формат : UTF-8
Идентификатор кодека : S_TEXT/UTF8
Идентификатор кодека/Информация : UTF-8 Plain Text
Продолжительность : 55 м. 33 с.
Битрейт : 3 бит/сек
Count of elements : 19
Размер потока : 1,26 Кбайт (0%)
Заголовок : fors
Язык : Russian
Default : Да
Forced : Нет
Текст #2
Идентификатор : 5
Формат : UTF-8
Идентификатор кодека : S_TEXT/UTF8
Идентификатор кодека/Информация : UTF-8 Plain Text
Продолжительность : 55 м. 43 с.
Битрейт : 57 бит/сек
Count of elements : 556
Размер потока : 23,5 Кбайт (0%)
Заголовок : FULL
Язык : Russian
Default : Нет
Forced : Нет
Текст #3
Идентификатор : 6
Формат : UTF-8
Идентификатор кодека : S_TEXT/UTF8
Идентификатор кодека/Информация : UTF-8 Plain Text
Продолжительность : 55 м. 56 с.
Битрейт : 41 бит/сек
Count of elements : 584
Размер потока : 16,9 Кбайт (0%)
Язык : English
Default : Нет
Forced : Нет
Текст #4
Идентификатор : 7
Формат : UTF-8
Идентификатор кодека : S_TEXT/UTF8
Идентификатор кодека/Информация : UTF-8 Plain Text
Продолжительность : 56 м. 6 с.
Битрейт : 47 бит/сек
Count of elements : 704
Размер потока : 19,6 Кбайт (0%)
Заголовок : SDH
Язык : English
Default : Нет
Forced : Нет

Показать сообщения

Вы не можете начинать темы
Вы не можете отвечать на сообщения
Вы не можете редактировать свои сообщения
Вы не можете удалять свои сообщения
Вы не можете голосовать в опросах
Вы не можете прикреплять файлы к сообщениям
Вы не можете скачивать файлы

Текущее время: 16-Июн 19:13

Часовой пояс: UTC ± 0

Пользовательское соглашение Для правообладателей Реклама на сайте Top.Mail.Ru