Подождите, идет загрузка сайта ...
2
Догмен / Dogman- Год выпуска: 2023
Страна: Франция
Жанр: боевик
Продолжительность: 01:54:30
Перевод: Профессиональный (дублированный) МОСФИЛЬМ-МАСТЕР
Субтитры: Русские, английские
Режиссер: Люк Бессон
В ролях: Калеб Лэндри Джонс, Джоджо Т. Гиббс, Кристофер Денэм, Клеменс Шик, Джон Чарльз Агилар, Грэйс Пальма, Ирис Бри, Мариза Беренсон, Lincoln Powell, Alexander Settineri-Качество: BDRip 1080p
Формат: MKV
Видео кодек: AVC
Аудио кодек: AC3
Видео: AVC, 1920 x 804, ~8 000 kbps, 24.000 fps
Аудио 1: AC3, 6 ch, 48 kHz, 448 kbps Русский
Аудио 2: AC3, 6 ch, 48 kHz, 448 kbps Английский-Описание: Он лучше всех на свете понимает собак. А те готовы выполнять любые его задания - украсть, припугнуть и даже приготовить блинчики. Догмен - не типичный супергерой с обложки комиксов. Его не волнуют проблемы людей, важно лишь одно - довольна ли стая. Но он единственный командует «взять», когда город прибирает к рукам влиятельный наркобарон.
Версия фильма, длиннее русского WEB-DL порядком на 4 минуты, на сцены без дубляжа сделаны Русские форсированные субтитры.
General
Unique ID : 283408832718531943535815232013240155310 (0xD5368E45372DCDF9BB571A2BE310BCAE)
Complete name : H:VideoHDogman.2023.BDRip.1080p.seleZen.mkv
Format : Matroska
Format version : Version 4
File size : 7.11 GiB
Duration : 1 h 54 min
Overall bit rate : 8 891 kb/s
Frame rate : 24.000 FPS
Movie name : Dogman (2023) from seleZen
Encoded date : 2024-01-27 20:56:03 UTC
Writing application : mkvmerge v80.0 ('Roundabout') 64-bit
Writing library : libebml v1.4.4 + libmatroska v1.7.1
Video
ID : 1
Format : AVC
Format/Info : Advanced Video Codec
Format profile : [email protected]
Format settings : CABAC / 5 Ref Frames
Format settings, CABAC : Yes
Format settings, Reference : 5 frames
Codec ID : V_MPEG4/ISO/AVC
Duration : 1 h 54 min
Bit rate : 8 000 kb/s
Width : 1 920 pixels
Height : 804 pixels
Display aspect ratio : 2.40:1
Frame rate mode : Constant
Frame rate : 24.000 FPS
Color space : YUV
Chroma subsampling : 4:2:0
Bit depth : 8 bits
Scan type : Progressive
Bits/(Pixel*Frame) : 0.216
Stream size : 6.40 GiB (90%)
Writing library : x264 core 164 r3164 seleZen
Encoding settings : cabac=1 / ref=5 / deblock=1:-2:-2 / analyse=0x3:0x133 / me=umh / subme=11 / psy=1 / psy_rd=1.02:0.02 / mixed_ref=1 / me_range=48 / chroma_me=1 / trellis=2 / 8x8dct=1 / cqm=0 / deadzone=21,11 / fast_pskip=0 / chroma_qp_offset=-3 / threads=25 / lookahead_threads=6 / sliced_threads=0 / nr=0 / decimate=0 / interlaced=0 / bluray_compat=0 / constrained_intra=0 / bframes=10 / b_pyramid=2 / b_adapt=2 / b_bias=0 / direct=3 / weightb=1 / open_gop=0 / weightp=2 / keyint=240 / keyint_min=23 / scenecut=40 / intra_refresh=0 / rc_lookahead=60 / rc=2pass / mbtree=0 / bitrate=8000 / ratetol=1.0 / qcomp=0.60 / qpmin=0 / qpmax=51 / qpstep=4 / cplxblur=20.0 / qblur=0.5 / vbv_maxrate=50000 / vbv_bufsize=62500 / nal_hrd=none / filler=0 / ip_ratio=1.40 / pb_ratio=1.30 / aq=3:0.80
Language : English
Default : Yes
Forced : No
Audio #1
ID : 2
Format : AC-3
Format/Info : Audio Coding 3
Commercial name : Dolby Digital
Codec ID : A_AC3
Duration : 1 h 54 min
Bit rate mode : Constant
Bit rate : 448 kb/s
Channel(s) : 6 channels
Channel layout : L R C LFE Ls Rs
Sampling rate : 48.0 kHz
Frame rate : 31.250 FPS (1536 SPF)
Compression mode : Lossy
Stream size : 367 MiB (5%)
Title : Dub
Language : Russian
Service kind : Complete Main
Default : Yes
Forced : No
Audio #2
ID : 3
Format : AC-3
Format/Info : Audio Coding 3
Commercial name : Dolby Digital
Format settings : Dolby Surround EX
Codec ID : A_AC3
Duration : 1 h 54 min
Bit rate mode : Constant
Bit rate : 448 kb/s
Channel(s) : 6 channels
Channel layout : L R C LFE Ls Rs
Sampling rate : 48.0 kHz
Frame rate : 31.250 FPS (1536 SPF)
Compression mode : Lossy
Stream size : 367 MiB (5%)
Language : English
Service kind : Complete Main
Default : No
Forced : No
Text #1
ID : 4
Format : UTF-8
Codec ID : S_TEXT/UTF8
Codec ID/Info : UTF-8 Plain Text
Duration : 22 min 59 s
Bit rate : 25 b/s
Frame rate : 0.067 FPS
Count of elements : 93
Stream size : 4.37 KiB (0%)
Title : Forced
Language : Russian
Default : Yes
Forced : Yes
Text #2
ID : 5
Format : UTF-8
Codec ID : S_TEXT/UTF8
Codec ID/Info : UTF-8 Plain Text
Duration : 1 h 47 min
Bit rate : 76 b/s
Frame rate : 0.215 FPS
Count of elements : 1387
Stream size : 60.3 KiB (0%)
Title : Full
Language : Russian
Default : No
Forced : No
Text #3
ID : 6
Format : UTF-8
Codec ID : S_TEXT/UTF8
Codec ID/Info : UTF-8 Plain Text
Duration : 1 h 11 min
Bit rate : 0 b/s
Frame rate : 0.001 FPS
Count of elements : 6
Stream size : 97.0 Bytes (0%)
Title : Forced
Language : English
Default : No
Forced : Yes
Text #4
ID : 7
Format : UTF-8
Codec ID : S_TEXT/UTF8
Codec ID/Info : UTF-8 Plain Text
Duration : 1 h 51 min
Bit rate : 49 b/s
Frame rate : 0.205 FPS
Count of elements : 1376
Stream size : 40.6 KiB (0%)
Title : Full
Language : English
Default : No
Forced : No
Menu
00:00:00.000 : en:Глава 01
00:09:44.458 : en:Глава 02
00:21:02.083 : en:Глава 03
00:29:35.667 : en:Глава 04
00:38:56.667 : en:Глава 05
00:47:17.000 : en:Глава 06
00:56:50.083 : en:Глава 07
01:09:24.833 : en:Глава 08
01:19:15.458 : en:Глава 09
01:26:21.125 : en:Глава 10
01:32:57.333 : en:Глава 11
01:41:19.583 : en:Глава 12

Показать сообщения

Вы не можете начинать темы
Вы не можете отвечать на сообщения
Вы не можете редактировать свои сообщения
Вы не можете удалять свои сообщения
Вы не можете голосовать в опросах
Вы не можете прикреплять файлы к сообщениям
Вы не можете скачивать файлы

Текущее время: 12-Июн 18:23

Часовой пояс: UTC ± 0

Пользовательское соглашение Для правообладателей Реклама на сайте Top.Mail.Ru