Подождите, идет загрузка сайта ...
65
Информация о фильме
Название: День благодарения
Оригинальное название: Thanksgiving
Год выхода: 2023
Жанр: Ужасы
Режиссер: Элай Рот--В ролях: Нелл Верлак, Патрик Демпси, Гэбриел Дэвенпорт, Джейлен Томас Брукс, Майло Манхейм, Дженна Уоррен, Рик Хоффман, Карен Клише, Эддисон Рэй, Тай Олссон--О фильме: Плимут, штат Массачусетс. Давка в торговом центре в Чёрную пятницу, совпавшую с Днём благодарения — празднике, зародившемся в этом городке, — унесла жизни нескольких человек. Год спустя, надев маску первого местного губернатора Джона Карвера и украв из музея его топор, неизвестный начинает охоту на виновных в той трагедии.--pic pic--Страна: США, Канада, Австралия
Студия: Cream Productions, Dragonfly Entertainment, Electromagnetic Productions, Ethereal Visage Productions, Spyglass Media Group, TriStar Pictures, TSG Entertainment
Продолжительность: 01:45:59
Перевод: * Профессиональный (многоголосый, закадровый) | TVShows | 18+
* Профессиональный (многоголосый, закадровый) | NewStudio | 18+
* Авторский (одноголосый, закадровый) | А. Пронин | 18+--Файл
Качество: BDRip 1080p
Формат: MKV
Кодек: MPEG-4 AVC
Видео: 1920x800 (2.40:1), 23.976 fps, MPEG-4 AVC ~ 10.1 Mbps avg, 0.274 bit/pixel
Аудио: pic AC3, 48 kHz, 6 ch, ~384.00 kbps avg | русский | MVO | TVShows | 18+
Аудио: pic AC3, 48 kHz, 6 ch, ~448.00 kbps avg | русский | MVO | NewStudio | 18+
Аудио: pic AC3, 48 kHz, 6 ch, ~448.00 kbps avg | русский | AVO | А. Пронин | 18+
Аудио: pic AC3, 48 kHz, 6 ch, ~640.00 kbps avg | английский |
Субтитры: Русские (full | 18+ (от stirlooo)), английские (Full, SDH)
--
Общее
Уникальный идентификатор : 224788378341724206429949663800720514437 (0xA91CAAB9F2F52B1DBA9EF8517D525D85)
Полное имя : Thanksgiving.2023.1080p.BluRay.DD.5.1.x264-MegaPeer.mkv
Формат : Matroska
Версия формата : Version 4
Размер файла : 8, 90 Гбайт
Продолжительность : 1 ч. 45 м.
Общий поток : 12, 0 Мбит/сек
Частота кадров : 23, 976 кадра/сек
Название фильма : День благодарения / Thanksgiving (2023) от stillet@MegaPeer
Дата кодирования : 2024-01-30 08:21:50 UTC
Программа кодирования : mkvmerge v15.0.0 ('Duel with the Devil') 64-bit
Библиотека кодирования : libebml v1.3.5 + libmatroska v1.4.5
Обложка : Yes
Attachments : cover.jpg
Видео
Идентификатор : 1
Формат : AVC
Формат/Информация : Advanced Video Codec
Профиль формата : [email protected]
Настройки формата : CABAC / 5 Ref Frames
Параметр CABAC формата : Да
Параметр RefFrames формата : 5 кадров
Идентификатор кодека : V_MPEG4/ISO/AVC
Продолжительность : 1 ч. 45 м.
Битрейт : 10, 1 Мбит/сек
Ширина : 1 920 пикселей
Высота : 800 пикселей
Соотношение сторон : 2, 40:1
Режим частоты кадров : Постоянный
Частота кадров : 23, 976 (24000/1001) кадра/сек
Цветовое пространство : YUV
Субдискретизация насыщенности : 4:2:0
Битовая глубина : 8 бит
Тип развёртки : Прогрессивная
Бит/(Пиксели*Кадры) : 0.274
Размер потока : 7, 48 Гбайт (84%)
Библиотека кодирования : x264 core 164 r3156+57M stillet t_mod_New [(8 & 10)-bit@all X86_64]
Настройки программы : cabac=1 / ref=5 / deblock=1:-3:-3 / analyse=0x3:0x113 / me=umh / subme=10 / psy=1 / fade_compensate=0.00 / psy_rd=1.01:0.03 / mixed_ref=1 / me_range=32 / chroma_me=1 / trellis=2 / 8x8dct=1 / cqm=0 / deadzone=21, 11 / fast_pskip=0 / chroma_qp_offset=-3 / threads=12 / lookahead_threads=3 / sliced_threads=0 / nr=0 / decimate=0 / interlaced=0 / bluray_compat=0 / constrained_intra=0 / fgo=0 / bframes=10 / b_pyramid=2 / b_adapt=2 / b_bias=0 / direct=3 / weightb=1 / open_gop=0 / weightp=2 / keyint=240 / keyint_min=24 / scenecut=40 / intra_refresh=0 / rc_lookahead=40 / rc=2pass / mbtree=0 / bitrate=10100 / ratetol=1.0 / qcomp=0.60 / qpmin=0:0:0 / qpmax=69:69:69 / qpstep=4 / cplxblur=20.0 / qblur=0.5 / vbv_maxrate=50000 / vbv_bufsize=62500 / nal_hrd=none / filler=0 / ip_ratio=1.40 / pb_ratio=1.30 / aq=1:1.10 / aq-sensitivity=10.00 / aq-factor=1.00:1.00:1.00 / aq2=0 / aq3=0
Язык : English
Default : Да
Forced : Нет
Аудио #1
Идентификатор : 2
Формат : AC-3
Формат/Информация : Audio Coding 3
Коммерческое название : Dolby Digital
Идентификатор кодека : A_AC3
Продолжительность : 1 ч. 45 м.
Вид битрейта : Постоянный
Битрейт : 384 Кбит/сек
Каналы : 6 каналов
Channel layout : L R C LFE Ls Rs
Частота : 48, 0 КГц
Частота кадров : 31, 250 кадров/сек (1536 SPF)
Метод сжатия : С потерями
Размер потока : 291 Мбайт (3%)
Заголовок : MVO | TVShows | 18+
Язык : Russian
Service kind : Complete Main
Default : Да
Forced : Да
Аудио #2
Идентификатор : 3
Формат : AC-3
Формат/Информация : Audio Coding 3
Коммерческое название : Dolby Digital
Идентификатор кодека : A_AC3
Продолжительность : 1 ч. 45 м.
Вид битрейта : Постоянный
Битрейт : 448 Кбит/сек
Каналы : 6 каналов
Channel layout : L R C LFE Ls Rs
Частота : 48, 0 КГц
Частота кадров : 31, 250 кадров/сек (1536 SPF)
Метод сжатия : С потерями
Размер потока : 340 Мбайт (4%)
Заголовок : MVO | NewStudio | 18+
Язык : Russian
Service kind : Complete Main
Default : Нет
Forced : Нет
Аудио #3
Идентификатор : 4
Формат : AC-3
Формат/Информация : Audio Coding 3
Коммерческое название : Dolby Digital
Идентификатор кодека : A_AC3
Продолжительность : 1 ч. 45 м.
Вид битрейта : Постоянный
Битрейт : 448 Кбит/сек
Каналы : 6 каналов
Channel layout : L R C LFE Ls Rs
Частота : 48, 0 КГц
Частота кадров : 31, 250 кадров/сек (1536 SPF)
Метод сжатия : С потерями
Размер потока : 340 Мбайт (4%)
Заголовок : AVO | А. Пронин | 18+
Язык : Russian
Service kind : Complete Main
Default : Нет
Forced : Нет
Аудио #4
Идентификатор : 5
Формат : AC-3
Формат/Информация : Audio Coding 3
Коммерческое название : Dolby Digital
Идентификатор кодека : A_AC3
Продолжительность : 1 ч. 45 м.
Вид битрейта : Постоянный
Битрейт : 640 Кбит/сек
Каналы : 6 каналов
Channel layout : L R C LFE Ls Rs
Частота : 48, 0 КГц
Частота кадров : 31, 250 кадров/сек (1536 SPF)
Метод сжатия : С потерями
Размер потока : 485 Мбайт (5%)
Язык : English
Service kind : Complete Main
Default : Нет
Forced : Нет
Текст #1
Идентификатор : 6
Формат : UTF-8
Идентификатор кодека : S_TEXT/UTF8
Идентификатор кодека/Информация : UTF-8 Plain Text
Продолжительность : 1 ч. 45 м.
Битрейт : 99 бит/сек
Частота кадров : 0, 238 кадр/сек
Count of elements : 1509
Размер потока : 76, 9 Кбайт (0%)
Заголовок : Full | stirlooo | 18+
Язык : Russian
Default : Нет
Forced : Нет
Текст #2
Идентификатор : 7
Формат : UTF-8
Идентификатор кодека : S_TEXT/UTF8
Идентификатор кодека/Информация : UTF-8 Plain Text
Продолжительность : 1 ч. 44 м.
Битрейт : 65 бит/сек
Частота кадров : 0, 273 кадр/сек
Count of elements : 1708
Размер потока : 49, 8 Кбайт (0%)
Заголовок : Full
Язык : English
Default : Нет
Forced : Нет
Текст #3
Идентификатор : 8
Формат : UTF-8
Идентификатор кодека : S_TEXT/UTF8
Идентификатор кодека/Информация : UTF-8 Plain Text
Продолжительность : 1 ч. 44 м.
Битрейт : 77 бит/сек
Частота кадров : 0, 337 кадр/сек
Count of elements : 2118
Размер потока : 59, 6 Кбайт (0%)
Заголовок : SDH
Язык : English
Default : Нет
Forced : Нет
Меню
00:00:00.000 : Chapter 01
00:04:34.899 : Chapter 02
00:13:37.399 : Chapter 03
00:19:25.038 : Chapter 04
00:26:19.743 : Chapter 05
00:30:52.267 : Chapter 06
00:37:54.271 : Chapter 07
00:44:57.695 : Chapter 08
00:50:09.380 : Chapter 09
00:56:48.278 : Chapter 10
01:00:53.650 : Chapter 11
01:07:13.112 : Chapter 12
01:13:08.132 : Chapter 13
01:20:01.296 : Chapter 14
01:28:43.192 : Chapter 15
01:34:18.860 : Chapter 16

Показать сообщения

Вы не можете начинать темы
Вы не можете отвечать на сообщения
Вы не можете редактировать свои сообщения
Вы не можете удалять свои сообщения
Вы не можете голосовать в опросах
Вы не можете прикреплять файлы к сообщениям
Вы не можете скачивать файлы

Текущее время: 22-Июн 18:39

Часовой пояс: UTC ± 0

Пользовательское соглашение Для правообладателей Реклама на сайте Top.Mail.Ru