Подождите, идет загрузка сайта ...
2
Что, если...?| What If...?- Год выпуска: 2023
Страна: США
Жанр: Мультсериал, фэнтези, боевик, приключения
Продолжительность: ~ 00:31:00
Перевод 1: Профессиональный (многоголосый) LostFilm
Перевод 2: Профессиональный (многоголосый) HDRezka Studio
Субтитры: Русские(Full), Английские (Full,SDH)
Сезон: 2
Серии: 1-5 из 9
В ролях: Джеффри Райт, Чэдвик Боузмэн, Хейли Этвелл, Доминик Купер, Шон Ганн, Джимон Хонсу, Сэмюэл Л. Джексон, Тоби Джонс, Нил МакДонаф, Майкл Рукер
Режиссёр: Брайан Эндрюс, Стефан Франк-Качество: WEBrip (2160p)
Формат: MKV
Видео кодек: HEVC
Аудио кодек: AС3, E-AC3
Видео: HEVC, 14.1 Мбит/с, 3840x2160, 24.000 fps
Аудио 1: AС3, 2ch, 384 Кбит/с, 48.0 kHz | LostFilm
Аудио 2: AС3, 2ch, 192 Кбит/с, 48.0 kHz | HDRezka Studio
Аудио 3: E-AC3, 6ch, 768 Кбит/с, 48.0 kHz | Original-Описание: А "что если" бы события развернулись совсем по другому? И вот этот момент настал... Исследуя поворотные моменты из кинематографической вселенной Marvel и переворачивая их с ног на голову, вы попадаете на неизведанную для себя территорию - мультивселенную безграничных возможностей, в которой нам встретятся все культовые персонажи Marvel: Железный Человек, Тор, Локи, Чёрная Пантера, Звёздный Лорд, Доктор Стрэндж... Мир супергероев Марвел огромен и разнообразен, поэтому сценаристы решили пофантазировать и задались вопросом "Что если?". Например, что было бы, если вместо Стива Роджерса суперсолдатом стала Пегги Картер? А что было бы, если президентом США стал Тони Старк, а Питер Паркер - Человек-паук потерял бы не дядю Бена, а тётю Мэй, а если бы Человек-паук присоединился к Фантастической четверке, что, если бы Джессика Джонс сражалась вместе с Мстителями? Ответы на эти и другие вопросы дает всевидящий Наблюдатель — неземное существо, которое видит все, что происходит во вселенной. Словом, десятки безумных версий, которые точно вызовут споры среди фанатов!
Внимание! Раздача ведётся путём добавления новых серий; при каждом добавлении создаётся новый торрент.
Чтобы начать докачку новой серии, пользователям необходимо сделать следующее:
1. Остановить скачивание;
2. Удалить старый торрент у себя из клиента (старые серии удалять не надо);
3. Скачать новый торрент и запустить его у себя в клиенте вместо старого, при этом указать клиенту путь в старую папку куда и должно происходить скачивание новых серий. Ваш клиент при этом должен произвести хеширование (проверку) старой папки и будет докачивать только те серии, которых у вас ещё нет. Старые серии при этом не удаляются, а продолжают раздаваться! Eсли вы уже удалили старые серии, то предотвратить повторную закачку старых серий можно, отжав галочку в соответствующих местах при запуске нового торрента.
General
Unique ID : 151509184865711223793480331738756173205 (0x71FB9B8B8F34EB8E57631880680C4D95)
Complete name : E:\Раздачи\What If (Season 2) DV HDR WEB-DL 2160p\What.If.S02E01.DV.HDR.WEB-DL.2160p.mkv
Format : Matroska
Format version : Version 4
File size : 3.09 GiB
Duration : 28 min 39 s
Overall bit rate : 15.4 Mb/s
Frame rate : 24.000 FPS
Movie name : What If... 02x01
Encoded date : 2023-12-23 20:14:10 UTC
Writing application : mkvmerge v80.0 ('Roundabout') 64-bit
Writing library : libebml v1.4.4 + libmatroska v1.7.1
Video
ID : 1
Format : HEVC
Format/Info : High Efficiency Video Coding
Format profile : Main 10@L5@High
HDR format : Dolby Vision, Version 1.0, dvhe.08.06, BL+RPU, HDR10 compatible / SMPTE ST 2086, HDR10 compatible
Codec ID : V_MPEGH/ISO/HEVC
Duration : 28 min 39 s
Bit rate : 14.1 Mb/s
Width : 3 840 pixels
Height : 2 160 pixels
Display aspect ratio : 16:9
Frame rate mode : Constant
Frame rate : 24.000 FPS
Color space : YUV
Chroma subsampling : 4:2:0
Bit depth : 10 bits
Bits/(Pixel*Frame) : 0.071
Stream size : 2.82 GiB (91%)
Title : What If… Nebula Joined the Nova Corps?
Language : English
Default : Yes
Forced : No
Color range : Limited
Color primaries : BT.2020
Transfer characteristics : PQ
Matrix coefficients : BT.2020 non-constant
Mastering display color primaries : BT.2020
Mastering display luminance : min: 0.0000 cd/m2, max: 1000 cd/m2
Audio #1
ID : 2
Format : AC-3
Format/Info : Audio Coding 3
Commercial name : Dolby Digital
Codec ID : A_AC3
Duration : 28 min 39 s
Bit rate mode : Constant
Bit rate : 384 kb/s
Channel(s) : 2 channels
Channel layout : L R
Sampling rate : 48.0 kHz
Frame rate : 31.250 FPS (1536 SPF)
Compression mode : Lossy
Stream size : 78.7 MiB (2%)
Title : LostFilm
Language : Russian
Service kind : Complete Main
Default : Yes
Forced : No
Audio #2
ID : 3
Format : AC-3
Format/Info : Audio Coding 3
Commercial name : Dolby Digital
Codec ID : A_AC3
Duration : 28 min 39 s
Bit rate mode : Constant
Bit rate : 192 kb/s
Channel(s) : 2 channels
Channel layout : L R
Sampling rate : 48.0 kHz
Frame rate : 31.250 FPS (1536 SPF)
Compression mode : Lossy
Stream size : 39.4 MiB (1%)
Title : HDRezka Studio
Language : Russian
Service kind : Complete Main
Default : No
Forced : No
Audio #3
ID : 4
Format : E-AC-3 JOC
Format/Info : Enhanced AC-3 with Joint Object Coding
Commercial name : Dolby Digital Plus with Dolby Atmos
Codec ID : A_EAC3
Duration : 28 min 39 s
Bit rate mode : Constant
Bit rate : 768 kb/s
Channel(s) : 6 channels
Channel layout : L R C LFE Ls Rs
Sampling rate : 48.0 kHz
Frame rate : 31.250 FPS (1536 SPF)
Compression mode : Lossy
Stream size : 157 MiB (5%)
Language : English
Service kind : Complete Main
Default : No
Forced : No
Complexity index : 16
Number of dynamic objects : 15
Bed channel count : 1 channel
Bed channel configuration : LFE
Text #1
ID : 5
Format : UTF-8
Codec ID : S_TEXT/UTF8
Codec ID/Info : UTF-8 Plain Text
Duration : 25 min 51 s
Bit rate : 111 b/s
Frame rate : 0.231 FPS
Count of elements : 359
Stream size : 21.2 KiB (0%)
Title : Где тексты, Лебовски?
Language : Russian
Default : No
Forced : No
Text #2
ID : 6
Format : UTF-8
Codec ID : S_TEXT/UTF8
Codec ID/Info : UTF-8 Plain Text
Duration : 25 min 51 s
Bit rate : 67 b/s
Frame rate : 0.233 FPS
Count of elements : 361
Stream size : 12.8 KiB (0%)
Language : English
Default : No
Forced : No
Text #3
ID : 7
Format : UTF-8
Codec ID : S_TEXT/UTF8
Codec ID/Info : UTF-8 Plain Text
Duration : 26 min 19 s
Bit rate : 75 b/s
Frame rate : 0.265 FPS
Count of elements : 418
Stream size : 14.5 KiB (0%)
Title : SDH
Language : English
Default : No
Forced : No
Menu
00:00:00.000 : en:Scene 1
00:01:43.333 : en:Intro
00:02:45.208 : en:Scene 2
00:07:19.875 : en:Scene 3
00:19:28.875 : en:Scene 4
00:26:28.625 : en:Credits

Показать сообщения

Вы не можете начинать темы
Вы не можете отвечать на сообщения
Вы не можете редактировать свои сообщения
Вы не можете удалять свои сообщения
Вы не можете голосовать в опросах
Вы не можете прикреплять файлы к сообщениям
Вы не можете скачивать файлы

Текущее время: 20-Июн 20:58

Часовой пояс: UTC ± 0

Пользовательское соглашение Для правообладателей Реклама на сайте Top.Mail.Ru