Подождите, идет загрузка сайта ...
65
Информация о сериале
Оригинальное название: Чикатило
Год выпуска: 2020-2024
Жанр: Детектив, драма, криминальный фильм, триллер
Режиссер: Сарик Андреасян--В ролях: Дмитрий Нагиев, Николай Козак, Дмитрий Власкин, Константин Лавроненко, Юлия Афанасьева, Виталий Кищенко, Евгений Шириков, Олег Каменщиков, Карэн Бадалов, Виктория Богатырёва, Алексей Кирсанов, Елизавета Моряк, Марк Богатырёв, Елизавета Говорова, Олег Евтеев, Александр Булатов--О сериале: Финальный сезон художественного сериала, в основу которого легла история двойной жизни самого известного маньяка Советского Союза Андрея Чикатило и расследования его преступлений. СССР, середина 80-х годов. В стране началась Перестройка, правительством заявлены перемены, но на местах до этого еще очень далеко. Маньяк, известный в народе как «Ростовский потрошитель», продолжает совершать преступления, и следственные группы полковника Ковалева и прибывшего на смену Кесаеву полковника Брагина прикладывают все усилия, чтобы вычислить его, однако между коллегами нет согласия и слаженности. Давнее противостояние вновь набирает обороты.--picpic--Страна: Россия
Студия: Кинокомпания «Ökko Studios»
Продолжительность: 24 х ~ 00:57:00--Файл
Кодек: XviD
Качество: WEB-DLRip
Видео: XviD, ~ 1600 Кбит/с, 720x304, 25 кадр/с
Аудио: AC3, 2 ch, 192 Кбит/с
Язык: Русский
Cубтитры: Нет--
General
Complete name: E:\Чикатило..2021.WEB-DLRip.Files-x\04. Чикатило..2021.WEB-DLRip.Files-x.avi
Format: AVI
Format/Info: Audio Video Interleave
File size: 765 MiB
Duration: 57mn 15s
Overall bit rate: 1 868 Kbps
Writing application: VirtualDubMod 1.5.10.3 | https://www.virtualdub-fr.org || (build 2550/release)
Writing library: VirtualDubMod build 2550/release
Video
ID: 0
Format: MPEG-4 Visual
Format profile: Advanced Simple@L5
Format settings, BVOP: 1
Format settings, QPel: No
Format settings, GMC: No warppoints
Format settings, Matrix: Custom
Codec ID: XVID
Codec ID/Hint: XviD
Duration: 57mn 15s
Bit rate: 1 666 Kbps
Width: 720 pixels
Height: 304 pixels
Display aspect ratio: 2.35:1
Frame rate: 25.000 fps
Color space: YUV
Chroma subsampling: 4:2:0
Bit depth: 8 bits
Scan type: Progressive
Compression mode: Lossy
Bits/(Pixel*Frame): 0.304
Stream size: 682 MiB (89%)
Writing library: XviD 73
Audio
ID: 1
Format: AC-3
Format/Info: Audio Coding 3
Mode extension: CM (complete main)
Codec ID: 2000
Duration: 57mn 15s
Bit rate mode: Constant
Bit rate: 192 Kbps
Channel(s): 2 channels
Channel positions: Front: L R
Sampling rate: 48.0 KHz
Bit depth: 16 bits
Compression mode: Lossy
Stream size: 78.6 MiB (10%)
Alignment: Split accross interleaves
Interleave, duration: 40 ms (1.00 video frame)
Interleave, preload duration: 500 ms

Показать сообщения

Вы не можете начинать темы
Вы не можете отвечать на сообщения
Вы не можете редактировать свои сообщения
Вы не можете удалять свои сообщения
Вы не можете голосовать в опросах
Вы не можете прикреплять файлы к сообщениям
Вы не можете скачивать файлы

Текущее время: 15-Июл 05:48

Часовой пояс: UTC ± 0

Пользовательское соглашение Для правообладателей Реклама на сайте Top.Mail.Ru