Подождите, идет загрузка сайта ...
2
Ч е к а г о- Год выпуска: 2022
Страна: Россия
Студия: Продюсерский центр «Мувистарт», Ветер перемен
Жанр: Драма, криминал
Продолжительность: 01:30:33
Перевод: Не требуется
Субтитры: Отсутствуют
Режиссер: Николай Рыбников
В ролях: Данил Стеклов, Аскар Нигамедзянов, Эльдар Сафиканов, Семен Алешин, Мила Ершова, Юрий Кузнецов, Игорь Жижикин, Иван Кокорин, Галина Безрук, Мосэ Куртанидзе, Павел Герасенков-Качество: WEB-DL 1080p
Формат: MKV
Видео кодек: AVC
Аудио кодек: AC3
Видео: MPEG-4 AVC, ~ 5000 Кбит/с, 1920x1040, 24.000 fps
Аудио: AC3, 6 ch, 448 Кбит/с, 48 kHz
Русский
-Описание: Никита живет в маленьком городке Чегаринск, который находится прямо на пути наркотрафика из Средней Азии в Сибирь. Решив поехать в Москву строить музыкальную карьеру, Никита хочет подзаработать. Его друг детства предлагает перевезти сумку с наркотиками, и во время поездки в Красноярск Никита чудом не попадает в руки полиции.
Общее
Уникальный идентификатор                 : 195208926203675393653527313202569973620 (0x92DBDF23B74EFCC29763EF1415428F74)
Полное имя                               : D:\РАЗДАЧИ\Chekago.2022.WEB-DL.1080p.ExKinoRay.mkv
Формат                                   : Matroska
Версия формата                           : Version 2
Размер файла                             : 3,44 Гбайт
Продолжительность                        : 1 ч. 30 мин.
Общий битрейт                            : 5 435 Кбит/сек
Частота кадров                           : 24,000 кадра/сек
Дата кодирования                         : 2023-04-05 23:40:52 UTC
Программа кодирования                    : mkvmerge v5.8.0 ('No Sleep / Pillow') built on Sep  2 2012 15:37:04
Библиотека кодирования                   : libebml v1.2.3 + libmatroska v1.3.0
Видео
Идентификатор                            : 1
Формат                                   : AVC
Формат/Информация                        : Advanced Video Codec
Профиль формата                          : High@L4
Настройки формата                        : CABAC / 3 Ref Frames
Параметр CABAC формата                   : Да
Параметр RefFrames формата               : 3 кадра
Идентификатор кодека                     : V_MPEG4/ISO/AVC
Продолжительность                        : 1 ч. 30 мин.
Битрейт                                  : 5 000 Кбит/сек
Ширина                                   : 1 920 пикселей
Высота                                   : 1 040 пикселей
Соотношение сторон дисплея               : 1,85:1
Режим частоты кадров                     : Постоянный
Частота кадров                           : 24,000 кадра/сек
Цветовое пространство                    : YUV
Цветовая субдискретизация                : 4:2:0
Битовая глубина                          : 8 бит
Тип развёртки                            : Прогрессивная
Бит/(Пиксели*Кадры)                      : 0.104
Размер потока                            : 3,09 Гбайт (90%)
Библиотека кодирования                   : x264 core 161 r3048 b86ae3c
Параметры библиотеки кодирования         : cabac=1 / ref=4 / deblock=1:1:1 / analyse=0x3:0x133 / me=umh / subme=9 / psy=1 / psy_rd=0.40:1.00 / mixed_ref=1 / me_range=24 / chroma_me=1 / trellis=0 / 8x8dct=1 / cqm=0 / deadzone=21,11 / fast_pskip=1 / chroma_qp_offset=-2 / threads=32 / lookahead_threads=2 / sliced_threads=0 / nr=0 / decimate=1 / interlaced=0 / bluray_compat=0 / constrained_intra=0 / bframes=8 / b_pyramid=1 / b_adapt=1 / b_bias=0 / direct=3 / weightb=1 / open_gop=0 / weightp=2 / keyint=72 / keyint_min=37 / scenecut=0 / intra_refresh=0 / rc_lookahead=30 / rc=2pass / mbtree=1 / bitrate=5000 / ratetol=1.0 / qcomp=0.80 / qpmin=1 / qpmax=69 / qpstep=4 / cplxblur=20.0 / qblur=0.5 / vbv_maxrate=7500 / vbv_bufsize=10000 / nal_hrd=none / filler=0 / ip_ratio=1.40 / aq=1:1.00
Язык                                     : Русский
По умолчанию                             : Да
Принудительно                            : Нет
Аудио
Идентификатор                            : 2
Формат                                   : AC-3
Формат/Информация                        : Audio Coding 3
Коммерческое название                    : Dolby Digital
Идентификатор кодека                     : A_AC3
Продолжительность                        : 1 ч. 30 мин.
Вид битрейта                             : Постоянный
Битрейт                                  : 448 Кбит/сек
Канал(-ы)                                : 6 каналов
Расположение каналов                     : L R C LFE Ls Rs
Частота дискретизации                    : 48,0 КГц
Частота кадров                           : 31,250 кадров/сек (1536 SPF)
Метод сжатия                             : С потерями
Размер потока                            : 290 Мбайт (8%)
Язык                                     : Русский
Вид сервиса                              : Complete Main
По умолчанию                             : Да
Принудительно                            : Нет
Нормализация звука речи                  : -31 dB
cmixlev                                  : -3.0 dB
surmixlev                                : -6 dB
dialnorm_Average                         : -31 dB
dialnorm_Minimum                         : -31 dB
dialnorm_Maximum                         : -31 dB

Показать сообщения

Вы не можете начинать темы
Вы не можете отвечать на сообщения
Вы не можете редактировать свои сообщения
Вы не можете удалять свои сообщения
Вы не можете голосовать в опросах
Вы не можете прикреплять файлы к сообщениям
Вы не можете скачивать файлы

Текущее время: 12-Июн 18:12

Часовой пояс: UTC ± 0

Пользовательское соглашение Для правообладателей Реклама на сайте Top.Mail.Ru