Подождите, идет загрузка сайта ...
2
Большая гонка. Ауди против Лянчи / Race for Glory: Audi vs. Lancia- Год выпуска: 2024
Страна: Италия, Великобритания, Ирландия
Жанр: спорт, драма, биография
Продолжительность: 01:48:13
Перевод: Профессиональный (многоголосый) NewStudio | 18+
Субтитры: Русские, английские
Режиссер: Стефано Мордини
В ролях: Даниэль Брюль, Риккардо Скамарчо, Кэти Кларксон-Хилл, Фолькер Брух, Эстер Гаррель, Брюно Гуэри, Карлотта Верни, Якопо Рампини, Кай Портман, Джанмария Мартини, Жоау Ронча, Илир Ячеллари, Джулио Брицци, Аксель Галуа, Габриэле Портогезе-Качество: WEB-DL 1080p
Формат: MKV
Видео кодек: AVC
Аудио кодек: AC3, E-AC3
Видео: AVC, 1920 х 800, ~8370 kbps, 23,976 fps
Аудио 1: AC3, 6 ch, 48 kHz, 384 kbps RUS
Аудио 2: E-AC3, 6 ch, 48 kHz, 640 kbps ENG-Описание: История знаменитого противостояния итальянской «Лянчи» и немецкой «Ауди». Битва двух концернов, двух философий и двух легендарных машин, за рулём которых сидели лучшие в мире пилоты. 20 трасс в 12 странах: дождь, снег, горные серпантины и узкие улочки средневековых городов. В ход идут все уловки — ни одна из команд не думает отступать. Победитель получает всё, проигравший моет машины.
Общее
Уникальный идентификатор : 320747124909203566248619373153642750531 (0xF14DA634D8B97CB0C5E23675D7EA2243)
Полное имя : D:TorrentsRace.for.Glory.Audi.vs.Lancia.2024.1080p_от New-Team.mkv
Формат : Matroska
Версия формата : Version 4
Размер файла : 7,10 Гбайт
Продолжительность : 1 ч. 48 м.
Общий поток : 9 396 Кбит/сек
Название фильма : Race.for.Glory.Audi.vs.Lancia.2024.1080p_от New-Team
Дата кодирования : UTC 2024-01-11 14:25:14
Программа кодирования : mkvmerge v79.0 ('Funeral Pyres') 64-bit
Библиотека кодирования : libebml v1.4.4 + libmatroska v1.7.1
Видео
Идентификатор : 1
Формат : AVC
Формат/Информация : Advanced Video Codec
Профиль формата : High@L4
Настройки формата : CABAC / 4 Ref Frames
Параметр CABAC формата : Да
Параметр RefFrames формата : 4 кадра
Идентификатор кодека : V_MPEG4/ISO/AVC
Продолжительность : 1 ч. 48 м.
Вид битрейта : Постоянный
Битрейт : 8 370 Кбит/сек
Номинальный битрейт : 10 000 Кбит/сек
Ширина : 1 920 пикселей
Высота : 800 пикселей
Соотношение сторон : 2,40:1
Режим частоты кадров : Постоянный
Частота кадров : 23,976 (24000/1001) кадра/сек
Цветовое пространство : YUV
Субдискретизация насыщенности : 4:2:0
Битовая глубина : 8 бит
Тип развёртки : Прогрессивная
Бит/(Пиксели*Кадры) : 0.227
Размер потока : 6,33 Гбайт (89%)
Язык : English
Default : Да
Forced : Нет
Цветовой диапазон : Limited
Основные цвета : BT.709
Характеристики трансфера : BT.709
Коэффициенты матрицы : BT.709
Аудио #1
Идентификатор : 2
Формат : AC-3
Формат/Информация : Audio Coding 3
Коммерческое название : Dolby Digital
Идентификатор кодека : A_AC3
Продолжительность : 1 ч. 48 м.
Вид битрейта : Постоянный
Битрейт : 384 Кбит/сек
Каналы : 6 каналов
Channel layout : L R C LFE Ls Rs
Частота : 48,0 КГц
Частота кадров : 31,250 кадров/сек (1536 SPF)
Метод сжатия : С потерями
Размер потока : 297 Мбайт (4%)
Заголовок : MVO - NewStudio | 18+
Язык : Russian
Service kind : Complete Main
Default : Да
Forced : Нет
Аудио #2
Идентификатор : 3
Формат : E-AC-3
Формат/Информация : Enhanced AC-3
Коммерческое название : Dolby Digital Plus
Идентификатор кодека : A_EAC3
Продолжительность : 1 ч. 48 м.
Вид битрейта : Постоянный
Битрейт : 640 Кбит/сек
Каналы : 6 каналов
Channel layout : L R C LFE Ls Rs
Частота : 48,0 КГц
Частота кадров : 31,250 кадров/сек (1536 SPF)
Метод сжатия : С потерями
Размер потока : 495 Мбайт (7%)
Заголовок : Original
Язык : English
Service kind : Complete Main
Default : Нет
Forced : Нет
Текст #1
Идентификатор : 4
Формат : UTF-8
Идентификатор кодека : S_TEXT/UTF8
Идентификатор кодека/Информация : UTF-8 Plain Text
Продолжительность : 1 ч. 39 м.
Битрейт : 2 бит/сек
Count of elements : 24
Размер потока : 1,97 Кбайт (0%)
Заголовок : [forced]
Язык : Russian
Default : Да
Forced : Нет
Текст #2
Идентификатор : 5
Формат : UTF-8
Идентификатор кодека : S_TEXT/UTF8
Идентификатор кодека/Информация : UTF-8 Plain Text
Продолжительность : 1 ч. 43 м.
Битрейт : 15 бит/сек
Count of elements : 348
Размер потока : 11,7 Кбайт (0%)
Заголовок : [forced]
Язык : English
Default : Нет
Forced : Нет
Текст #3
Идентификатор : 6
Формат : UTF-8
Идентификатор кодека : S_TEXT/UTF8
Идентификатор кодека/Информация : UTF-8 Plain Text
Продолжительность : 1 ч. 46 м.
Битрейт : 47 бит/сек
Count of elements : 1153
Размер потока : 36,7 Кбайт (0%)
Заголовок : [full]
Язык : English
Default : Нет
Forced : Нет
Текст #4
Идентификатор : 7
Формат : UTF-8
Идентификатор кодека : S_TEXT/UTF8
Идентификатор кодека/Информация : UTF-8 Plain Text
Продолжительность : 1 ч. 48 м.
Битрейт : 54 бит/сек
Count of elements : 1463
Размер потока : 43,1 Кбайт (0%)
Заголовок : [SDH]
Язык : English
Default : Нет
Forced : Нет


Последний раз редактировалось: LAV (2024-01-31 11:15), всего редактировалось 1 раз
213
ALLIGATOR 14-Янв-2024 07:57 (спустя 1 дней 23 часа)
как фильм?
2
LAV ® 11-Фев-2024 13:51 (спустя 28 дней)
Не знаю не смотрел еще

Показать сообщения

Вы не можете начинать темы
Вы не можете отвечать на сообщения
Вы не можете редактировать свои сообщения
Вы не можете удалять свои сообщения
Вы не можете голосовать в опросах
Вы не можете прикреплять файлы к сообщениям
Вы не можете скачивать файлы

Текущее время: 23-Июн 07:48

Часовой пояс: UTC ± 0

Пользовательское соглашение Для правообладателей Реклама на сайте Top.Mail.Ru