Подождите, идет загрузка сайта ...
2
Бедные-несчастные / Poor Things- Год выпуска: 2023
Страна: Ирландия, Великобритания, США, Венгрия
Жанр: Драма, комедия, фантастика
Продолжительность: 02:21:39
Перевод: Профессиональный (многоголосый, закадровый) | Jaskier
Субтитры: Русские (Full), украинские (Full), английские
Режиссер: Йоргос Лантимос / Giorgos Lanthimos
В ролях: Эмма Стоун, Уиллем Дефо, Рами Юссеф, Марк Руффало, Вики Пеппердайн, Джек Бартон, Чарли Хискок, Аттила Добай, Эмма Хиндл, Андерс Олоф Грундберг-Качество: BDRip 1080p
Формат: MKV
Видео кодек: AVC
Аудио кодек: AC3
Видео: MPEG-4 AVC, 1792x1080, 12.8 Mbit/s, 23.976 fps
Аудио #01: 48 kHz, AC3, 5.1, 384 Kbps | Профессиональный многоголосый | Jaskier | RUS
Аудио #02: 48 kHz, AC3, 5.1, 640 Kbps | Оригинал | ENG-Описание: Викторианский Лондон. Сумасшедший хирург Годвин вылавливает из Темзы тело молодой беременной женщины, прыгнувшей с моста, пересаживает ей мозг её собственного нерожденного младенца и реанимирует. Белла поначалу передвигается как сломанная кукла и имеет весьма ограниченный словарный запас, но быстро учится. Чтобы наблюдать за ней, Годвин призывает на помощь студента-медика Макса, который заодно выглядит хорошей партией для девушки, но на Беллу кладет глаз плейбой-юрист Данкан Веддерберн и увлекает её в путешествие, где она познает мир и себя.
General
Unique ID : 114537742857054372972158083779943468141 (0x562B2AB831EB6807D742BE176A780C6D)
Complete name : F:VideoFPoor.Things.2023.MVO.BDRip.1080p.seleZen.mkv
Format : Matroska
Format version : Version 4
File size : 13.7 GiB
Duration : 2 h 21 min
Overall bit rate : 13.8 Mb/s
Frame rate : 23.976 FPS
Movie name : Poor Things 2023 from seleZen
Encoded date : 2024-03-05 02:00:54 UTC
Writing application : mkvmerge v80.0 ('Roundabout') 64-bit
Writing library : libebml v1.4.4 + libmatroska v1.7.1
Video
ID : 1
Format : AVC
Format/Info : Advanced Video Codec
Format profile : [email protected]
Format settings : CABAC / 4 Ref Frames
Format settings, CABAC : Yes
Format settings, Reference : 4 frames
Codec ID : V_MPEG4/ISO/AVC
Duration : 2 h 21 min
Bit rate : 12.8 Mb/s
Width : 1 792 pixels
Height : 1 080 pixels
Display aspect ratio : 5:3
Frame rate mode : Constant
Frame rate : 23.976 (24000/1001) FPS
Color space : YUV
Chroma subsampling : 4:2:0
Bit depth : 8 bits
Scan type : Progressive
Bits/(Pixel*Frame) : 0.276
Stream size : 12.7 GiB (93%)
Writing library : x264 core 164 r3164 seleZen
Encoding settings : cabac=1 / ref=4 / deblock=1:-2:-2 / analyse=0x3:0x133 / me=umh / subme=11 / psy=1 / psy_rd=1.02:0.04 / mixed_ref=1 / me_range=48 / chroma_me=1 / trellis=2 / 8x8dct=1 / cqm=0 / deadzone=21,11 / fast_pskip=0 / chroma_qp_offset=-3 / threads=34 / lookahead_threads=5 / sliced_threads=0 / nr=0 / decimate=0 / interlaced=0 / bluray_compat=0 / constrained_intra=0 / bframes=9 / b_pyramid=2 / b_adapt=2 / b_bias=0 / direct=3 / weightb=1 / open_gop=0 / weightp=2 / keyint=240 / keyint_min=23 / scenecut=40 / intra_refresh=0 / rc_lookahead=60 / rc=2pass / mbtree=0 / bitrate=12800 / ratetol=1.0 / qcomp=0.60 / qpmin=0 / qpmax=51 / qpstep=4 / cplxblur=20.0 / qblur=0.5 / vbv_maxrate=50000 / vbv_bufsize=62500 / nal_hrd=none / filler=0 / ip_ratio=1.40 / pb_ratio=1.30 / aq=3:0.80
Language : English
Default : Yes
Forced : No
Audio #1
ID : 2
Format : AC-3
Format/Info : Audio Coding 3
Commercial name : Dolby Digital
Codec ID : A_AC3
Duration : 2 h 21 min
Bit rate mode : Constant
Bit rate : 384 kb/s
Channel(s) : 6 channels
Channel layout : L R C LFE Ls Rs
Sampling rate : 48.0 kHz
Frame rate : 31.250 FPS (1536 SPF)
Compression mode : Lossy
Stream size : 389 MiB (3%)
Title : MVO_Jaskier
Language : Russian
Service kind : Complete Main
Default : Yes
Forced : No
Audio #2
ID : 3
Format : AC-3
Format/Info : Audio Coding 3
Commercial name : Dolby Digital
Codec ID : A_AC3
Duration : 2 h 21 min
Bit rate mode : Constant
Bit rate : 640 kb/s
Channel(s) : 6 channels
Channel layout : L R C LFE Ls Rs
Sampling rate : 48.0 kHz
Frame rate : 31.250 FPS (1536 SPF)
Compression mode : Lossy
Stream size : 648 MiB (5%)
Title : Original
Language : English
Service kind : Complete Main
Default : No
Forced : No
Text #1
ID : 4
Format : UTF-8
Codec ID : S_TEXT/UTF8
Codec ID/Info : UTF-8 Plain Text
Duration : 2 h 14 min
Bit rate : 84 b/s
Frame rate : 0.212 FPS
Count of elements : 1711
Stream size : 83.8 KiB (0%)
Title : Full
Language : Russian
Default : No
Forced : No
Text #2
ID : 5
Format : UTF-8
Codec ID : S_TEXT/UTF8
Codec ID/Info : UTF-8 Plain Text
Duration : 2 h 19 min
Bit rate : 71 b/s
Frame rate : 0.196 FPS
Count of elements : 1645
Stream size : 73.4 KiB (0%)
Title : Full
Language : Ukrainian
Default : No
Forced : No
Text #3
ID : 6
Format : UTF-8
Codec ID : S_TEXT/UTF8
Codec ID/Info : UTF-8 Plain Text
Duration : 2 h 10 min
Bit rate : 46 b/s
Frame rate : 0.207 FPS
Count of elements : 1627
Stream size : 45.0 KiB (0%)
Title : Full
Language : English (US)
Default : No
Forced : No
Text #4
ID : 7
Format : UTF-8
Codec ID : S_TEXT/UTF8
Codec ID/Info : UTF-8 Plain Text
Duration : 2 h 20 min
Bit rate : 54 b/s
Frame rate : 0.258 FPS
Count of elements : 2174
Stream size : 55.7 KiB (0%)
Title : SDH
Language : English (US)
Default : No
Forced : No
Menu
00:00:00.000 : en:Chapter 01
00:04:45.952 : en:Chapter 02
00:08:06.611 : en:Chapter 03
00:11:07.166 : en:Chapter 04
00:15:37.311 : en:Chapter 05
00:20:03.119 : en:Chapter 06
00:25:37.786 : en:Chapter 07
00:31:30.680 : en:Chapter 08
00:36:49.040 : en:Chapter 09
00:41:02.418 : en:Chapter 10
00:48:25.069 : en:Chapter 11
00:51:24.790 : en:Chapter 12
00:59:02.998 : en:Chapter 13
01:04:47.592 : en:Chapter 14
01:09:34.712 : en:Chapter 15
01:15:47.209 : en:Chapter 16
01:22:31.155 : en:Chapter 17
01:24:10.295 : en:Chapter 18
01:30:57.285 : en:Chapter 19
01:37:16.456 : en:Chapter 20
01:43:33.332 : en:Chapter 21
01:45:19.146 : en:Chapter 22
01:48:23.539 : en:Chapter 23
01:51:11.415 : en:Chapter 24
01:58:15.297 : en:Chapter 25
02:11:38.557 : en:Chapter 26
02:15:59.151 : en:Chapter 27
02:21:39.741 : en:Chapter 28

Показать сообщения

Вы не можете начинать темы
Вы не можете отвечать на сообщения
Вы не можете редактировать свои сообщения
Вы не можете удалять свои сообщения
Вы не можете голосовать в опросах
Вы не можете прикреплять файлы к сообщениям
Вы не можете скачивать файлы

Текущее время: 16-Июн 15:21

Часовой пояс: UTC ± 0

Пользовательское соглашение Для правообладателей Реклама на сайте Top.Mail.Ru