Подождите, идет загрузка сайта ...
2
Баба Яга спасает мир- Год выпуска: 2023
Страна: Россия
Жанр: Фэнтези, комедия, семейный, приключения
Продолжительность: 01:30:00
Перевод: Оригинал КиноПоиск HD
Субтитры: Отсутствуют
Режиссер: Карен Захаров
В ролях: Глафира Тарханова, Людмила Артемьева, Олеся Железняк, Григорий Сиятвинда, Алексей Дмитриев, Александр Ильин, Савелий Кудряшов, Марат Башаров, Ольга Науменко, Ян Цапник-Качество: WEB-DLRip-AVC
Формат: MKV
Видео кодек: AVC
Аудио кодек: AC3
Видео: 1024x428 (2.40:1), 24 fps, MPEG-4 AVC ~ 2577 Kbps avg, 0.245 bit/pixel
Аудио: AC3, 48 kHz, 6 ch, ~384.00 kbps avg | русский-Описание: Любопытный школьник Сенька каким-то чудом попадает в сказочный древний лес. Он скрыт от людских глаз мощным заклятием Бабы Яги, призванным защитить людей и весь мир от дремлющих там темных сил. В лесу явно творится что-то неладное. Тревожные сигналы возвещают, что заклятие больше не действует, и пробуждение зловещего волшебства и давно поверженных врагов — лишь вопрос времени. Чтобы наложить заклятие снова, Яга вынуждена отправиться в современный город на поиск мощнейшего оружия волшебников, дивноцвета. Там ее ожидает встреча с множеством причуд современного мира, а в темном подземелье уже тысячу лет прячется жаждущий мести Кощей Бессмертный, ведь именно Яга помогла одолеть его много веков назад.
Общее
Уникальный идентификатор : 229862915589174650481428919714040276820 (0xACEDFCBAB1D661B79628DB0DD3AC6754)
Полное имя : Baba.Yaga.spasyot.mir.2023.RUS.WEB-DL.DD.5.1.x264.MegaPeer.mkv
Формат : Matroska
Версия формата : Version 4
Размер файла : 1,86 Гбайт
Продолжительность : 1 ч. 30 м.
Общий поток : 2 961 Кбит/сек
Частота кадров : 24,000 кадра/сек
Название фильма : Баба Яга спасает мир (2023) от stillet@MegaPeer
Дата кодирования : 2023-10-21 01:34:31 UTC
Программа кодирования : mkvmerge v15.0.0 ('Duel with the Devil') 64-bit
Библиотека кодирования : libebml v1.3.5 + libmatroska v1.4.5
Обложка : Yes
Attachments : cover.jpg
Видео
Идентификатор : 1
Формат : AVC
Формат/Информация : Advanced Video Codec
Профиль формата : [email protected]
Настройки формата : CABAC / 11 Ref Frames
Параметр CABAC формата : Да
Параметр RefFrames формата : 11 кадров
Идентификатор кодека : V_MPEG4/ISO/AVC
Продолжительность : 1 ч. 29 м.
Битрейт : 2 577 Кбит/сек
Ширина : 1 024 пикселя
Высота : 428 пикселей
Соотношение сторон : 2,40:1
Режим частоты кадров : Постоянный
Частота кадров : 24,000 кадра/сек
Цветовое пространство : YUV
Субдискретизация насыщенности : 4:2:0
Битовая глубина : 8 бит
Тип развёртки : Прогрессивная
Бит/(Пиксели*Кадры) : 0.245
Размер потока : 1,62 Гбайт (87%)
Библиотека кодирования : x264 core 164 r3106+55M stillet t_mod_New [(8 & 10)-bit@all X86_64]
Настройки программы : cabac=1 / ref=11 / deblock=1:-3:-3 / analyse=0x3:0x113 / me=umh / subme=10 / psy=1 / fade_compensate=0.00 / psy_rd=1.03:0.02 / mixed_ref=1 / me_range=32 / chroma_me=1 / trellis=2 / 8x8dct=1 / cqm=0 / deadzone=21,11 / fast_pskip=0 / chroma_qp_offset=-3 / threads=12 / lookahead_threads=2 / sliced_threads=0 / nr=0 / decimate=0 / interlaced=0 / bluray_compat=0 / constrained_intra=0 / fgo=0 / bframes=9 / b_pyramid=2 / b_adapt=2 / b_bias=0 / direct=3 / weightb=1 / open_gop=0 / weightp=2 / keyint=240 / keyint_min=24 / scenecut=40 / intra_refresh=0 / rc_lookahead=40 / rc=2pass / mbtree=0 / bitrate=2577 / ratetol=1.0 / qcomp=0.60 / qpmin=0:0:0 / qpmax=69:69:69 / qpstep=4 / cplxblur=20.0 / qblur=0.5 / vbv_maxrate=50000 / vbv_bufsize=62500 / nal_hrd=none / filler=0 / ip_ratio=1.40 / pb_ratio=1.30 / aq=1:1.10 / aq-sensitivity=10.00 / aq-factor=1.00:1.00:1.00 / aq2=0 / aq3=0
Язык : Russian
Default : Да
Forced : Нет
Аудио
Идентификатор : 2
Формат : AC-3
Формат/Информация : Audio Coding 3
Коммерческое название : Dolby Digital
Идентификатор кодека : A_AC3
Продолжительность : 1 ч. 30 м.
Вид битрейта : Постоянный
Битрейт : 384 Кбит/сек
Каналы : 6 каналов
Channel layout : L R C LFE Ls Rs
Частота : 48,0 КГц
Частота кадров : 31,250 кадров/сек (1536 SPF)
Метод сжатия : С потерями
Размер потока : 247 Мбайт (13%)
Заголовок : Кинопоиск HD
Язык : Russian
Service kind : Complete Main
Default : Да
Forced : Да

Показать сообщения

Вы не можете начинать темы
Вы не можете отвечать на сообщения
Вы не можете редактировать свои сообщения
Вы не можете удалять свои сообщения
Вы не можете голосовать в опросах
Вы не можете прикреплять файлы к сообщениям
Вы не можете скачивать файлы

Текущее время: 23-Июн 09:16

Часовой пояс: UTC ± 0

Пользовательское соглашение Для правообладателей Реклама на сайте Top.Mail.Ru