Подождите, идет загрузка сайта ...
2
Аватар: Легенда об Аанге | Avatar: The Last Airbender- Год выпуска: 2024
Страна: США
Жанр: Фэнтези, боевик, драма, комедия, приключения
Продолжительность: 01:03:00
Сезоны / серии: Сезон: 1 / Серии: 1-8 из 8
Перевод:
Профессиональный (многоголосый закадровый) | HDRezka Studio
Профессиональный (многоголосый закадровый) | LostFilm 1-6 серия
Профессиональный (многоголосый закадровый) | TVShows
Любительский (многоголосый закадровый) | NewComers
Дублированный (неофициальный) | Red Head Sound-Субтитры: Русские (Netflix), Украинские, Иврит, Английские (Full, SDH)
В ролях: Гордон Кормье, Элизабет Ю, Тэмлин Томита, Иэн Аусли, Киавентио, Дэниэл Дэ Ким, Ивонн Чепмен, Кен Люн, Пол Ли, Мария Чжан
Режиссёр: Майкл Гои, Розанна Лян, Джаббар Райсани, Джет Уилкинсон-Качество: WEB-DL 1080p
Формат: MKV
Видео кодек: AVC
Аудио кодек: AC3, AAC, E-AC3 JOC
Видео: AVC, 1920x1080 (16:9), 24,000 кадра/сек, 4600 Кбит/сек
Аудио Rus: AC3, 48,0 kHz, 2 ch, 192 Кбит/сек | HDRezka Studio
Аудио Rus: AC3, 48,0 kHz, 2 ch, 384 Кбит/сек | LostFilm
Аудио Rus: AC3, 48 kHz, 3/2 (L,C,R,l,r) + LFE ch, 448 Кбит/сек | TVShows
Аудио Rus: AC3, 48 kHz, 3/2 (L,C,R,l,r) + LFE ch, 640 Кбит/сек | NewComers
Аудио Rus: AAC, 48,0 kHz, 2 ch, 192 Кбит/сек | Red Head Sound
Аудио Ukr: E-AC3, 48 kHz, 3/2 (L R C LFE Ls Rs) ch, 640 Кбит/сек | Le Doyen
Аудио Eng: E-AC3 JOC, 48 kHz, 3/2 (L R C LFE Ls Rs) ch, 768 Кбит/сек-Описание: Аанг может управлять четырьмя стихиями и пытается вместе с друзьями остановить вековую войну.
Общее
Уникальный идентификатор                 : 336672061688309702993566833004216975186 (0xFD48AE35897ABDA7852F6DA611F5FF52)
Полное имя                               : E:\Avatar.The.Last.Airbender.S01E01.1080p.WEB-DL.RGzsRutracker.mkv
Формат                                   : Matroska
Версия формата                           : Version 4
Размер файла                             : 3,50 Гбайт
Продолжительность                        : 1 ч. 3 м.
Режим общего битрейта                    : Переменный
Общий поток                              : 7 842 Кбит/сек
Частота кадров                           : 24,000 кадра/сек
Название фильма                          : Avatar: The Last Airbender 01x01 - Release by Wentworth_Miller
Дата кодирования                         : 2024-03-11 17:16:31 UTC
Программа кодирования                    : mkvmerge v80.0 ('Roundabout') 64-bit
Библиотека кодирования                   : libebml v1.4.4 + libmatroska v1.7.1
Видео
Идентификатор                            : 1
Формат                                   : AVC
Формат/Информация                        : Advanced Video Codec
Профиль формата                          : Main@L4
Настройки формата                        : CABAC / 3 Ref Frames
Параметр CABAC формата                   : Да
Параметр RefFrames формата               : 3 кадра
Идентификатор кодека                     : V_MPEG4/ISO/AVC
Продолжительность                        : 1 ч. 3 м.
Вид битрейта                             : Переменный
Битрейт                                  : 4 576 Кбит/сек
Номинальный битрейт                      : 5 000 Кбит/сек
Максимальный битрейт                     : 7 500 Кбит/сек
Ширина                                   : 1 920 пикселей
Высота                                   : 1 080 пикселей
Соотношение сторон                       : 16:9
Режим частоты кадров                     : Постоянный
Частота кадров                           : 24,000 кадра/сек
Цветовое пространство                    : YUV
Субдискретизация насыщенности            : 4:2:0
Битовая глубина                          : 8 бит
Тип развёртки                            : Прогрессивная
Бит/(Пиксели*Кадры)                      : 0.092
Размер потока                            : 2,04 Гбайт (58%)
Заголовок                                : Aang
Библиотека кодирования                   : x264 core 148 r2727 7d026e8
Настройки программы                      : cabac=1 / ref=3 / deblock=1:0:0 / analyse=0x1:0x111 / me=umh / subme=10 / psy=1 / psy_rd=1.00:0.00 / mixed_ref=1 / me_range=24 / chroma_me=1 / trellis=2 / 8x8dct=0 / cqm=0 / deadzone=21,11 / fast_pskip=1 / chroma_qp_offset=-2 / threads=6 / lookahead_threads=1 / sliced_threads=0 / nr=0 / decimate=1 / interlaced=0 / bluray_compat=0 / stitchable=1 / constrained_intra=0 / bframes=2 / b_pyramid=0 / b_adapt=2 / b_bias=0 / direct=3 / weightb=1 / open_gop=0 / weightp=2 / keyint=240 / keyint_min=121 / scenecut=0 / intra_refresh=0 / rc_lookahead=48 / rc=2pass / mbtree=1 / bitrate=5000 / ratetol=1.0 / qcomp=0.50 / qpmin=6 / qpmax=51 / qpstep=4 / cplxblur=20.0 / qblur=0.5 / vbv_maxrate=7500 / vbv_bufsize=10000 / nal_hrd=vbr / filler=0 / ip_ratio=1.40 / aq=1:1.00
Язык                                     : English
Default                                  : Да
Forced                                   : Нет
Аудио #1
Идентификатор                            : 2
Формат                                   : AC-3
Формат/Информация                        : Audio Coding 3
Коммерческое название                    : Dolby Digital
Идентификатор кодека                     : A_AC3
Продолжительность                        : 1 ч. 3 м.
Вид битрейта                             : Постоянный
Битрейт                                  : 192 Кбит/сек
Каналы                                   : 2 канала
Channel layout                           : L R
Частота                                  : 48,0 КГц
Частота кадров                           : 31,250 кадров/сек (1536 SPF)
Метод сжатия                             : С потерями
Размер потока                            : 87,7 Мбайт (2%)
Заголовок                                : HDRezka Studio
Язык                                     : Russian
Service kind                             : Complete Main
Default                                  : Да
Forced                                   : Нет
Аудио #2
Идентификатор                            : 3
Формат                                   : AC-3
Формат/Информация                        : Audio Coding 3
Коммерческое название                    : Dolby Digital
Идентификатор кодека                     : A_AC3
Продолжительность                        : 1 ч. 3 м.
Вид битрейта                             : Постоянный
Битрейт                                  : 384 Кбит/сек
Каналы                                   : 2 канала
Channel layout                           : L R
Частота                                  : 48,0 КГц
Частота кадров                           : 31,250 кадров/сек (1536 SPF)
Метод сжатия                             : С потерями
Размер потока                            : 175 Мбайт (5%)
Заголовок                                : LostFilm
Язык                                     : Russian
Service kind                             : Complete Main
Default                                  : Нет
Forced                                   : Нет
Аудио #3
Идентификатор                            : 4
Формат                                   : AC-3
Формат/Информация                        : Audio Coding 3
Коммерческое название                    : Dolby Digital
Идентификатор кодека                     : A_AC3
Продолжительность                        : 1 ч. 3 м.
Вид битрейта                             : Постоянный
Битрейт                                  : 448 Кбит/сек
Каналы                                   : 6 каналов
Channel layout                           : L R C LFE Ls Rs
Частота                                  : 48,0 КГц
Частота кадров                           : 31,250 кадров/сек (1536 SPF)
Метод сжатия                             : С потерями
Размер потока                            : 205 Мбайт (6%)
Заголовок                                : TVShows
Язык                                     : Russian
Service kind                             : Complete Main
Default                                  : Нет
Forced                                   : Нет
Аудио #4
Идентификатор                            : 5
Формат                                   : AC-3
Формат/Информация                        : Audio Coding 3
Коммерческое название                    : Dolby Digital
Идентификатор кодека                     : A_AC3
Продолжительность                        : 1 ч. 3 м.
Вид битрейта                             : Постоянный
Битрейт                                  : 640 Кбит/сек
Каналы                                   : 6 каналов
Channel layout                           : L R C LFE Ls Rs
Частота                                  : 48,0 КГц
Частота кадров                           : 31,250 кадров/сек (1536 SPF)
Метод сжатия                             : С потерями
Размер потока                            : 292 Мбайт (8%)
Заголовок                                : NewComers
Язык                                     : Russian
Service kind                             : Complete Main
Default                                  : Нет
Forced                                   : Нет
Аудио #5
Идентификатор                            : 6
Формат                                   : AAC LC
Формат/Информация                        : Advanced Audio Codec Low Complexity
Идентификатор кодека                     : A_AAC-2
Продолжительность                        : 1 ч. 3 м.
Битрейт                                  : 192 Кбит/сек
Каналы                                   : 2 канала
Channel layout                           : L R
Частота                                  : 48,0 КГц
Частота кадров                           : 46,875 кадров/сек (1024 SPF)
Метод сжатия                             : С потерями
Размер потока                            : 86,3 Мбайт (2%)
Заголовок                                : Red Head Sound
Язык                                     : Russian
Default                                  : Нет
Forced                                   : Нет
Аудио #6
Идентификатор                            : 7
Формат                                   : E-AC-3
Формат/Информация                        : Enhanced AC-3
Коммерческое название                    : Dolby Digital Plus
Идентификатор кодека                     : A_EAC3
Продолжительность                        : 1 ч. 3 м.
Вид битрейта                             : Постоянный
Битрейт                                  : 640 Кбит/сек
Каналы                                   : 6 каналов
Channel layout                           : L R C LFE Ls Rs
Частота                                  : 48,0 КГц
Частота кадров                           : 31,250 кадров/сек (1536 SPF)
Метод сжатия                             : С потерями
Размер потока                            : 292 Мбайт (8%)
Заголовок                                : Le Doyen
Язык                                     : Ukrainian
Service kind                             : Complete Main
Default                                  : Нет
Forced                                   : Нет
Аудио #7
Идентификатор                            : 8
Формат                                   : E-AC-3 JOC
Формат/Информация                        : Enhanced AC-3 with Joint Object Coding
Коммерческое название                    : Dolby Digital Plus with Dolby Atmos
Идентификатор кодека                     : A_EAC3
Продолжительность                        : 1 ч. 3 м.
Вид битрейта                             : Постоянный
Битрейт                                  : 768 Кбит/сек
Каналы                                   : 6 каналов
Channel layout                           : L R C LFE Ls Rs
Частота                                  : 48,0 КГц
Частота кадров                           : 31,250 кадров/сек (1536 SPF)
Метод сжатия                             : С потерями
Размер потока                            : 351 Мбайт (10%)
Язык                                     : English
Service kind                             : Complete Main
Default                                  : Нет
Forced                                   : Нет
Complexity index                         : 16
Number of dynamic objects                : 15
Bed channel count                        : 1 канал
Bed channel configuration                : LFE
Текст #1
Идентификатор                            : 9
Формат                                   : UTF-8
Идентификатор кодека                     : S_TEXT/UTF8
Идентификатор кодека/Информация          : UTF-8 Plain Text
Продолжительность                        : 59 м. 9 с.
Битрейт                                  : 63 бит/сек
Частота кадров                           : 0,165 кадр/сек
Count of elements                        : 585
Размер потока                            : 27,5 Кбайт (0%)
Язык                                     : Russian
Default                                  : Нет
Forced                                   : Нет
Текст #2
Идентификатор                            : 10
Формат                                   : UTF-8
Идентификатор кодека                     : S_TEXT/UTF8
Идентификатор кодека/Информация          : UTF-8 Plain Text
Продолжительность                        : 22 м. 2 с.
Битрейт                                  : 1 бит/сек
Частота кадров                           : 0,005 кадр/сек
Count of elements                        : 7
Размер потока                            : 322 байт (0%)
Заголовок                                : Forced
Язык                                     : Ukrainian
Default                                  : Нет
Forced                                   : Нет
Текст #3
Идентификатор                            : 11
Формат                                   : UTF-8
Идентификатор кодека                     : S_TEXT/UTF8
Идентификатор кодека/Информация          : UTF-8 Plain Text
Продолжительность                        : 59 м. 8 с.
Битрейт                                  : 63 бит/сек
Частота кадров                           : 0,160 кадр/сек
Count of elements                        : 567
Размер потока                            : 27,5 Кбайт (0%)
Язык                                     : Ukrainian
Default                                  : Нет
Forced                                   : Нет
Текст #4
Идентификатор                            : 12
Формат                                   : UTF-8
Идентификатор кодека                     : S_TEXT/UTF8
Идентификатор кодека/Информация          : UTF-8 Plain Text
Продолжительность                        : 56 м. 57 с.
Битрейт                                  : 44 бит/сек
Частота кадров                           : 0,171 кадр/сек
Count of elements                        : 584
Размер потока                            : 18,5 Кбайт (0%)
Язык                                     : English
Default                                  : Нет
Forced                                   : Нет
Текст #5
Идентификатор                            : 13
Формат                                   : UTF-8
Идентификатор кодека                     : S_TEXT/UTF8
Идентификатор кодека/Информация          : UTF-8 Plain Text
Продолжительность                        : 57 м. 35 с.
Битрейт                                  : 56 бит/сек
Частота кадров                           : 0,248 кадр/сек
Count of elements                        : 858
Размер потока                            : 23,9 Кбайт (0%)
Заголовок                                : SDH
Язык                                     : English
Default                                  : Нет
Forced                                   : Нет
Текст #6
Идентификатор                            : 14
Формат                                   : UTF-8
Идентификатор кодека                     : S_TEXT/UTF8
Идентификатор кодека/Информация          : UTF-8 Plain Text
Продолжительность                        : 59 м. 9 с.
Битрейт                                  : 54 бит/сек
Частота кадров                           : 0,165 кадр/сек
Count of elements                        : 585
Размер потока                            : 23,6 Кбайт (0%)
Язык                                     : Hebrew
Default                                  : Нет
Forced                                   : Нет
Меню
00:00:00.000                             : en:Chapter 1
00:57:41.000                             : en:Credits

Показать сообщения

Вы не можете начинать темы
Вы не можете отвечать на сообщения
Вы не можете редактировать свои сообщения
Вы не можете удалять свои сообщения
Вы не можете голосовать в опросах
Вы не можете прикреплять файлы к сообщениям
Вы не можете скачивать файлы

Текущее время: 16-Июн 14:56

Часовой пояс: UTC ± 0

Пользовательское соглашение Для правообладателей Реклама на сайте Top.Mail.Ru