Подождите, идет загрузка сайта ...
2
Аватар: Легенда об Аанге / Avatar: The Last Airbender- Год выпуска: 2024
Страна: США
Жанр: Фэнтези, боевик, драма, комедия, приключения
Продолжительность: ~01:00:00 серия
Сезон: 1 сезон
Серии: 1 - 8 серия из 8
Перевод: Многоголосый любительский LE-Production
Субтитры: Русские, английские
Режиссер: Майкл Гои, Розанна Лян, Джаббар Райсани
В ролях: Гордон Кормье, Киавентио, Иэн Аусли, Даллас Лю, Пол Ли, Дэниэл Дэ Ким, Мэттью Ян Кинг, Кен Люн, Руй Искандар, Элизабет Ю-Качество: WEBRip 1080p
Формат: MKV
Видео кодек: AVC
Аудио кодек: AC3
Видео: AVC/H.264, 1920x1080, ~4600 Kbps, 24.000 fps
Аудио 1: AC3, 6 ch, 640 Kbps, 48 kHz MVO, LE-Production
Аудио 2: AC3, 6 ch, 640 Kbps, 48 kHz английский
Релиз от: LE-Production-Описание: В мире существуют народы четырех стихий: огня, воды, земли и воздуха. Представитель народа огня решил поработить остальные народы. Спасти мир и прекратить войну подвластно только аватару, повелевающему всеми четырьмя стихиями. Ответственность внезапно ложится на плечи двенадцатилетнего Аанга, которому предстоит отправиться в опасное путешествие.
Общее
Уникальный идентификатор                 : 54826616509184617592028690059767518517 (0x293F38E546354597F4824A00BBE71535)
Полное имя                               : H:\Фильмы\Avatar.The.Last.Airbender.S01.1080p.WEBRip.DD5.1.le-production\Avatar.The.Last.Airbender.S01E01.1080p.WEBRip.DD5.1.le-production.mkv
Формат                                   : Matroska
Версия формата                           : Version 4
Размер файла                             : 2,62 Гбайт
Продолжительность                        : 1 ч. 3 м.
Режим общего битрейта                    : Переменный
Общий поток                              : 5 881 Кбит/сек
Частота кадров                           : 24,000 кадра/сек
Дата кодирования                         : 2024-02-22 13:13:30 UTC
Программа кодирования                    : mkvmerge v31.0.0 ('Dolores In A Shoestand') 64-bit
Библиотека кодирования                   : libebml v1.3.6 + libmatroska v1.4.9
Видео
Идентификатор                            : 1
Формат                                   : AVC
Формат/Информация                        : Advanced Video Codec
Профиль формата                          : Main@L4
Настройки формата                        : CABAC / 3 Ref Frames
Параметр CABAC формата                   : Да
Параметр RefFrames формата               : 3 кадра
Параметр GOP формата                     : M=1, N=64
Идентификатор кодека                     : V_MPEG4/ISO/AVC
Продолжительность                        : 1 ч. 3 м.
Вид битрейта                             : Переменный
Битрейт                                  : 4 599 Кбит/сек
Максимальный битрейт                     : 14,4 Мбит/сек
Ширина                                   : 1 920 пикселей
Высота                                   : 1 080 пикселей
Соотношение сторон                       : 16:9
Режим частоты кадров                     : Постоянный
Частота кадров                           : 24,000 кадра/сек
Частота кадров в оригинале               : 23,000 кадра/сек
Цветовое пространство                    : YUV
Субдискретизация насыщенности            : 4:2:0
Битовая глубина                          : 8 бит
Тип развёртки                            : Прогрессивная
Бит/(Пиксели*Кадры)                      : 0.092
Размер потока                            : 2,05 Гбайт (78%)
Default                                  : Да
Forced                                   : Нет
Аудио #1
Идентификатор                            : 2
Формат                                   : AC-3
Формат/Информация                        : Audio Coding 3
Коммерческое название                    : Dolby Digital
Идентификатор кодека                     : A_AC3
Продолжительность                        : 1 ч. 3 м.
Вид битрейта                             : Постоянный
Битрейт                                  : 640 Кбит/сек
Каналы                                   : 6 каналов
Channel layout                           : L R C LFE Ls Rs
Частота                                  : 48,0 КГц
Частота кадров                           : 31,250 кадров/сек (1536 SPF)
Метод сжатия                             : С потерями
Задержка видео                           : -83 мс.
Размер потока                            : 292 Мбайт (11%)
Заголовок                                : le-production
Язык                                     : Russian
Service kind                             : Complete Main
Default                                  : Да
Forced                                   : Нет
Аудио #2
Идентификатор                            : 3
Формат                                   : AC-3
Формат/Информация                        : Audio Coding 3
Коммерческое название                    : Dolby Digital
Идентификатор кодека                     : A_AC3
Продолжительность                        : 1 ч. 3 м.
Вид битрейта                             : Постоянный
Битрейт                                  : 640 Кбит/сек
Каналы                                   : 6 каналов
Channel layout                           : L R C LFE Ls Rs
Частота                                  : 48,0 КГц
Частота кадров                           : 31,250 кадров/сек (1536 SPF)
Метод сжатия                             : С потерями
Задержка видео                           : -83 мс.
Размер потока                            : 292 Мбайт (11%)
Заголовок                                : английский [оригинал] DD+ 5.1 HQ
Язык                                     : English
Service kind                             : Complete Main
Default                                  : Нет
Forced                                   : Нет
Текст #1
Идентификатор                            : 4
Формат                                   : UTF-8
Идентификатор кодека                     : S_TEXT/UTF8
Идентификатор кодека/Информация          : UTF-8 Plain Text
Продолжительность                        : 59 м. 9 с.
Битрейт                                  : 62 бит/сек
Частота кадров                           : 0,165 кадр/сек
Count of elements                        : 585
Размер потока                            : 27,2 Кбайт (0%)
Заголовок                                : русский
Язык                                     : Russian
Default                                  : Нет
Forced                                   : Нет
Текст #2
Идентификатор                            : 5
Формат                                   : UTF-8
Идентификатор кодека                     : S_TEXT/UTF8
Идентификатор кодека/Информация          : UTF-8 Plain Text
Продолжительность                        : 57 м. 35 с.
Битрейт                                  : 55 бит/сек
Частота кадров                           : 0,248 кадр/сек
Count of elements                        : 858
Размер потока                            : 23,5 Кбайт (0%)
Заголовок                                : английский
Язык                                     : English
Default                                  : Нет
Forced                                   : Нет
Сериал является адаптацией анимационной «Легенды об Аанге», выходившей на Nickelodeon с 2005 по 2008 год.
В 2010 году вышла полнометражная экранизация сериала «Повелитель стихий» М. Найта Шьямалана. Проект был разгромлен критиками и провалился в прокате.
В сентябре 2018 года Netflix объявил, что в 2019 году начнётся производство «переосмысленного» ремейка «Аватара» с живыми актёрами. Создатели мультсериала, Майкл Данте Димартино и Брайан Кониецко, были изначально объявлены исполнительными продюсерами и шоураннерами сериала. В июне 2020 года они покинули проект из-за творческих разногласий. Об этом стало известно 12 августа 2020 года, когда Димартино опубликовал сообщение на своём веб-сайте. Создатели указали на различия в подходе к шоу по сравнению с видением Netflix, а также заявили о «негативной и недружелюбной» среде во время их пребывания в студии. В августе 2021 года Альберт Ким официально стал сценаристом, исполнительным продюсером и шоураннером сериала. Он прокомментировал это так: «Моя первая мысль была „Почему?“. Что я могу сделать с историей или добавить, чего не было прописано или не сказано в оригинале? Но чем больше я думал об этом, тем больше заинтриговывался. Мы сможем увидеть покорения стихий реальными и интуитивными, каких никогда раньше не видели». В том же блог-посте Ким подчеркнул, что «на протяжении всего этого процесса их девизом была „подлинность“. По отношению к рассказу. К персонажам. К культурным отсылкам. Подлинность — вот что заставляет нас работать как перед камерой, так и за ней». Дэн Линь, Линдси Либераторе, Майкл Гой и Розанна Лян также были объявлены исполнительными продюсерами. При этом Гой и Лян также стали режиссёрами.
По заявлению Кониецко, создатели придерживались «культурно приемлемого, небелёного состава». В августе 2021 года после утечки отчётов о кастингах Netflix раскрыл актёрский состав шоу, объявив четырёх главных персонажей: Гордона Кормье, Киавентиио Тарбелл, Иана Усли и Далласа Лю в роли Аанга, Катары, Сокки и Зуко соответственно. Ким считал, что «это был шанс продемонстрировать персонажей Азии и коренных народов как настоящих полных жизни людей. Не только в мультфильме, но и в действительно существующем мире, очень похожем на тот, в котором мы живём». В ноябре 2021 года Дэниел Дэ Ким присоединился к актёрскому составу сериала в роли Лорда Огня Озая. Позже в том же месяце Пол Сон-Хён Ли, Лим Кай Сиу и Кен Люн были объявлены в ролях Айро, Гиатсо и Джао соответственно. В декабре к актёрскому составу добавились Элизабет Ю, Ивонн Чапман, Тэмлин Томита, Кейси Кэмп-Хоринек и Мария Джан, которые сыграли Азулу, Аватара Киоши, Юкари (оригинальный персонаж сериала), Пра-пра и Суки соответственно.
Брайан Кониецко надеялся, что к проекту присоединится Данте Баско, актёр, озвучивший Зуко в оригинальном мультсериале.
Съёмки проводились в Ванкувере с 16 ноября 2021 года по июнь 2022 года под рабочим названием Trade Winds and Blue Dawn.
Джереми Цукерман, сочинивший музыку для мультсериала, изначально собирался присоединиться к проекту, чтобы написать музыку для ремейка, но позже отрицал своё участие после того, как Димартино и Кониецко покинули производство шоу. В феврале 2023 года композитором шоу стал Такеши Фурукаваruen. В сериале будет использоваться саундтрек из оригинального «Аватара».

Показать сообщения

Вы не можете начинать темы
Вы не можете отвечать на сообщения
Вы не можете редактировать свои сообщения
Вы не можете удалять свои сообщения
Вы не можете голосовать в опросах
Вы не можете прикреплять файлы к сообщениям
Вы не можете скачивать файлы

Текущее время: 22-Июн 19:48

Часовой пояс: UTC ± 0

Пользовательское соглашение Для правообладателей Реклама на сайте Top.Mail.Ru