Подождите, идет загрузка сайта ...
2
Атлас / Atlas- Год выпуска: 2024
Страна: США
Жанр: Фантастика, боевик, драма
Продолжительность: 01:58:00
Перевод: Дублированный (Videofilm Int., LeDoyen)
Язык озвучки: русский, английский, украинский
Субтитры: русские (forced, full), английские (SDH), украинские
Режиссёр: Брэд Пейтон / Brad Peyton
В ролях: Дженнифер Лопес, Симу Лю, Марк Стронг, Стерлинг К. Браун, Грег Кохан, Абрахам Попула, Лана Паррия, Бриелла Гуиса, Чарли Хьюсон, Адия Смит-Эрикссон, Логан Хант, Джаред Симабукуро, Альфредо Таварес, Дженис Ахерн-Качество: WEB-DL 1080p
Формат: MKV
Видео кодек: AVC
Аудио кодек: AC3
Видео: AVC/H.264, 1920х804, ~4090 Kbps, 24,000 кадра/сек
Аудио 1: AC3, 6 ch, 640 kbps, 48,0 КГц
русский
(DUB Videofilm Int.)
Аудио 2: AC3, 6 ch, 640 kbps, 48,0 КГц
украинский
(DUB, LeDoyen)
Аудио 3: AC3, 6 ch, 640 kbps, 48,0 КГц
английский
(Оригинал)-Описание: События фильма разворачиваются в не столь отдаленном будущем, в котором искусственный интеллект захватил власть над людьми и развязал войну на уничтожение всего человечества. Героиня Дженнифер Лопез — блестящий аналитик Атлас Шепард, всегда с недоверием относившаяся к ИИ. Женщина присоединяется к миссии по поимке робота-отступника, с которым ее связывает загадочное прошлое. Но все идет не по плану, и чтобы не потерять единственный шанс спасти мир от искусственного интеллекта, Атлас должна довериться ему. «Атлас» (2024) — фантастический боевик с Дженнифер Лопез и звездой фильма «Шан-Чи и легенда Десяти колец» Симу Лю в главных ролях.
Общее
Уникальный идентификатор                 : 183139113343037180580447819884768130043 (0x89C74F6BBB07DBE7840AAF2F2705F3FB)
Полное имя                               : Атлас. 2024 (WEB-DLRip 1080p).mkv
Формат                                   : Matroska
Версия формата                           : Version 2
Размер файла                             : 5,08 Гбайт
Продолжительность                        : 1 ч. 58 м.
Общий поток                              : 6 135 Кбит/сек
Частота кадров                           : 24,000 кадра/сек
Название фильма                          : Atlas.2024.WEB-DLRip 1080p.Atla22
Дата кодирования                         : 2024-05-24 20:40:50 UTC
Программа кодирования                    : mkvmerge v7.8.0 ('River Man') 32bit built on Apr  3 2015 12:11:22
Библиотека кодирования                   : libebml v1.3.1 + libmatroska v1.4.2
Обложка                                  : Yes
Attachments                              : Cover_Atlas.jpg
Видео
Идентификатор                            : 1
Формат                                   : AVC
Формат/Информация                        : Advanced Video Codec
Профиль формата                          : Main@L4
Настройки формата                        : CABAC / 1 Ref Frames
Параметр CABAC формата                   : Да
Параметр RefFrames формата               : 1 кадр
Параметр GOP формата                     : M=1, N=24
Идентификатор кодека                     : V_MPEG4/ISO/AVC
Продолжительность                        : 1 ч. 58 м.
Вид битрейта                             : Постоянный
Битрейт                                  : 4 092 Кбит/сек
Номинальный битрейт                      : 4 500 Кбит/сек
Ширина                                   : 1 920 пикселей
Высота                                   : 804 пикселя
Соотношение сторон                       : 2,39:1
Режим частоты кадров                     : Постоянный
Частота кадров                           : 24,000 кадра/сек
Цветовое пространство                    : YUV
Субдискретизация насыщенности            : 4:2:0
Битовая глубина                          : 8 бит
Тип развёртки                            : Прогрессивная
Бит/(Пиксели*Кадры)                      : 0.110
Размер потока                            : 3,39 Гбайт (67%)
Язык                                     : English
Default                                  : Да
Forced                                   : Нет
Аудио #1
Идентификатор                            : 2
Формат                                   : AC-3
Формат/Информация                        : Audio Coding 3
Коммерческое название                    : Dolby Digital
Идентификатор кодека                     : A_AC3
Продолжительность                        : 1 ч. 58 м.
Вид битрейта                             : Постоянный
Битрейт                                  : 640 Кбит/сек
Каналы                                   : 6 каналов
Channel layout                           : L R C LFE Ls Rs
Частота                                  : 48,0 КГц
Частота кадров                           : 31,250 кадров/сек (1536 SPF)
Метод сжатия                             : С потерями
Размер потока                            : 543 Мбайт (10%)
Заголовок                                : Dub
Язык                                     : Russian
Service kind                             : Complete Main
Default                                  : Да
Forced                                   : Нет
Аудио #2
Идентификатор                            : 3
Формат                                   : AC-3
Формат/Информация                        : Audio Coding 3
Коммерческое название                    : Dolby Digital
Идентификатор кодека                     : A_AC3
Продолжительность                        : 1 ч. 58 м.
Вид битрейта                             : Постоянный
Битрейт                                  : 640 Кбит/сек
Каналы                                   : 6 каналов
Channel layout                           : L R C LFE Ls Rs
Частота                                  : 48,0 КГц
Частота кадров                           : 31,250 кадров/сек (1536 SPF)
Метод сжатия                             : С потерями
Размер потока                            : 543 Мбайт (10%)
Язык                                     : English
Service kind                             : Complete Main
Default                                  : Нет
Forced                                   : Нет
Аудио #3
Идентификатор                            : 4
Формат                                   : AC-3
Формат/Информация                        : Audio Coding 3
Коммерческое название                    : Dolby Digital
Идентификатор кодека                     : A_AC3
Продолжительность                        : 1 ч. 58 м.
Вид битрейта                             : Постоянный
Битрейт                                  : 640 Кбит/сек
Каналы                                   : 6 каналов
Channel layout                           : L R C LFE Ls Rs
Частота                                  : 48,0 КГц
Частота кадров                           : 31,250 кадров/сек (1536 SPF)
Метод сжатия                             : С потерями
Размер потока                            : 543 Мбайт (10%)
Заголовок                                : Dub
Язык                                     : Ukrainian
Service kind                             : Complete Main
Default                                  : Нет
Forced                                   : Нет
Текст #1
Идентификатор                            : 5
Формат                                   : UTF-8
Идентификатор кодека                     : S_TEXT/UTF8
Идентификатор кодека/Информация          : UTF-8 Plain Text
Заголовок                                : Forced
Язык                                     : Russian
Default                                  : Да
Forced                                   : Да
Текст #2
Идентификатор                            : 6
Формат                                   : UTF-8
Идентификатор кодека                     : S_TEXT/UTF8
Идентификатор кодека/Информация          : UTF-8 Plain Text
Язык                                     : Russian
Default                                  : Нет
Forced                                   : Нет
Текст #3
Идентификатор                            : 7
Формат                                   : UTF-8
Идентификатор кодека                     : S_TEXT/UTF8
Идентификатор кодека/Информация          : UTF-8 Plain Text
Заголовок                                : SDH
Язык                                     : English
Default                                  : Нет
Forced                                   : Нет
Текст #4
Идентификатор                            : 8
Формат                                   : UTF-8
Идентификатор кодека                     : S_TEXT/UTF8
Идентификатор кодека/Информация          : UTF-8 Plain Text
Язык                                     : Ukrainian
Default                                  : Нет
Forced                                   : Нет
Меню
00:00:00.000                             : en:Part 01
01:48:47.450                             : en:Credits

Показать сообщения

Вы не можете начинать темы
Вы не можете отвечать на сообщения
Вы не можете редактировать свои сообщения
Вы не можете удалять свои сообщения
Вы не можете голосовать в опросах
Вы не можете прикреплять файлы к сообщениям
Вы не можете скачивать файлы

Текущее время: 12-Июн 21:59

Часовой пояс: UTC ± 0

Пользовательское соглашение Для правообладателей Реклама на сайте Top.Mail.Ru