Подождите, идет загрузка сайта ...
2
Аколит / The Acolyte- Год выпуска: 2024
Страна: США
Жанр: фантастика, боевик, драма, детектив, фэнтези
Продолжительность: ~ 00:40:00
Перевод: Профессиональный многоголосый [LostFilm]
Субтитры: нет
Режиссёр:
Ханель М. Кулпеппер, Алекс Гарсия Лопес, Лесли Хэдланд
В ролях:
Амандла Стенберг, Дафни Кин, Джоди Тёрнер-Смит, Ли Джон-джэ, Чарли Барнетт, Ребекка Хендерсон, Леа Брэйди, Йонас Суотамо, Эми Цан, Мэнни Хасинто-Качество: WEB-DL 1080p
Контейнер: MKV
Видео: MPEG4 Video (H264) 1920x1080 24fps [V: h264 high L4.0, yuv420p, 1920x1080 [default]]
Аудио RUS: Dolby AC3 48000Hz stereo 384kbps [A: RUS (ac3, 48000 Hz, stereo, 384 kb/s) [default]]
Аудио ENG: Dolby AC3 48000Hz stereo 384kbps [A: ENG (ac3, 48000 Hz, stereo, 384 kb/s)] |Original|-Описание: Действие сериала развернется во времена Расцвета Республики. «Аколит» расскажет о расследовании серии шокирующих преступлений, возглавят которое уважаемый мастер-джедай и его бывший падаван. По мере того как появляются новые улики, они узнают, что все не так, как кажется.
General
Unique ID                      : 238400121207371406094734249729590678981 (0xB35A3176BA2585F8A28883DBD825D5C5)
Complete name                  : G:\The.Acolyte.S01.1080p.rus.LostFilm\The.Acolyte.S01E01.1080p.rus.LostFilm.TV.mkv
Format                         : Matroska
Format version                 : Version 4 / Version 2
File size                      : 2.11 GiB
Duration                       : 40 min 56 s
Overall bit rate               : 7 386 kb/s
Encoded date                   : UTC 2024-06-06 21:11:08
Writing application            : mkvmerge v9.5.0 ('Quiet Fire') 64bit
Writing library                : libebml v1.3.4 + libmatroska v1.4.5
Video
ID                             : 1
Format                         : AVC
Format/Info                    : Advanced Video Codec
Format profile                 : High@L4
Format settings, CABAC         : Yes
Format settings, RefFrames     : 2 frames
Codec ID                       : V_MPEG4/ISO/AVC
Duration                       : 40 min 56 s
Bit rate                       : 6 616 kb/s
Width                          : 1 920 pixels
Height                         : 1 080 pixels
Display aspect ratio           : 16:9
Frame rate mode                : Constant
Frame rate                     : 24.000 FPS
Color space                    : YUV
Chroma subsampling             : 4:2:0
Bit depth                      : 8 bits
Scan type                      : Progressive
Bits/(Pixel*Frame)             : 0.133
Stream size                    : 1.89 GiB (90%)
Default                        : Yes
Forced                         : No
Audio #1
ID                             : 2
Format                         : AC-3
Format/Info                    : Audio Coding 3
Format settings, Endianness    : Big
Codec ID                       : A_AC3
Duration                       : 40 min 56 s
Bit rate mode                  : Constant
Bit rate                       : 384 kb/s
Channel(s)                     : 2 channels
Channel positions              : Front: L R
Sampling rate                  : 48.0 kHz
Frame rate                     : 31.250 FPS (1536 SPF)
Bit depth                      : 16 bits
Compression mode               : Lossy
Stream size                    : 112 MiB (5%)
Title                          : RUS
Service kind                   : Complete Main
Default                        : Yes
Forced                         : No
Audio #2
ID                             : 3
Format                         : AC-3
Format/Info                    : Audio Coding 3
Format settings, Endianness    : Big
Codec ID                       : A_AC3
Duration                       : 40 min 56 s
Bit rate mode                  : Constant
Bit rate                       : 384 kb/s
Channel(s)                     : 2 channels
Channel positions              : Front: L R
Sampling rate                  : 48.0 kHz
Frame rate                     : 31.250 FPS (1536 SPF)
Bit depth                      : 16 bits
Compression mode               : Lossy
Stream size                    : 112 MiB (5%)
Title                          : ENG
Service kind                   : Complete Main
Default                        : No
Forced                         : No
Раздача ведётся путём добавления новых серий; при каждом добавлении создаётся новый торрент.
Чтобы начать докачку новой серии, пользователям необходимо сделать следующее:
1. остановить скачивание,
2. удалить старый торрент у себя из клиента (старые серии удалять не надо),
3. скачать новый торрент и запустить его у себя в клиенте вместо старого, при этом указать клиенту путь в старую папку, куда и должно происходить скачивание новых серий.

Показать сообщения

Вы не можете начинать темы
Вы не можете отвечать на сообщения
Вы не можете редактировать свои сообщения
Вы не можете удалять свои сообщения
Вы не можете голосовать в опросах
Вы не можете прикреплять файлы к сообщениям
Вы не можете скачивать файлы

Текущее время: 16-Июн 18:02

Часовой пояс: UTC ± 0

Пользовательское соглашение Для правообладателей Реклама на сайте Top.Mail.Ru